In Extremo – Verehrt Und Angespien




Artist: In Extremo
Year: 1999
Genre: Rock
Notes: Discogs
Add. Notes:
Cover incl.: Yes
Encoder: ALAC
Bitrate: ~1000 kBit/s (44.1 kHz/16 Bit/s)
Log & Cue incl.: Yes
Size: 469,6 MB
Password: “slam” (without ” “)


All Downloads/Hosters are compatible

Download 1
Turbobit.net
Rapidgator.net
KatFile.com
UploadRar.com
Download 2
Turbobit.net
Rapidgator.net
KatFile.com
UploadRar.com

Tracklist:

1 - Merseburger Zaubersprüche - 4:27
2 - Ich Kenne Alles - 3:04
3 - Herr Mannelig - 4:55
4 - Pavane - 5:00
5 - Spielmannsfluch - 3:40
6 - Weiberfell - 4:27
7 - Miss Gordon Of Light - 2:09
8 - Werd Ich Am Galgen Hochgezogen - 3:47
9 - This Corrosion - 4:02
10 - Santa Maria - 4:27
11 - Vänner Och Frände - 3:57
12 - In Extremo - 4:20
13 - Bonus: Herr Mannelig (Acoustic Version) - 3:08

EAC-Log, CUE-Sheed & NFO:

Click to open spoiler
REM ACCURATERIPID 00196c78-00fcf46b-b60c2e0d
REM GENRE “Medieval Folk Metal”
REM DATE 1999
REM DISCID B60C2E0D
PERFORMER “In Extremo”
TITLE “Verehrt und Angespien”
CATALOG 0039841428124
REM DISCNUMBER 1
REM TOTALDISCS 1
FILE “01 – Merseburger Zaubersprüche.m4a” WAVE
TRACK 01 AUDIO
TITLE “Merseburger Zaubersprüche”
PERFORMER “In Extremo”
INDEX 01 00:00:00
TRACK 02 AUDIO
TITLE “Ich kenne alles”
PERFORMER “In Extremo”
INDEX 00 04:27:71
FILE “02 – Ich kenne alles.m4a” WAVE
INDEX 01 00:00:00
TRACK 03 AUDIO
TITLE “Herr Mannelig”
PERFORMER “In Extremo”
INDEX 00 03:05:34
FILE “03 – Herr Mannelig.m4a” WAVE
INDEX 01 00:00:00
FILE “04 – Pavane.m4a” WAVE
TRACK 04 AUDIO
TITLE “Pavane”
PERFORMER “In Extremo”
INDEX 01 00:00:00
TRACK 05 AUDIO
TITLE “Spielmannsfluch”
PERFORMER “In Extremo”
INDEX 00 05:00:54
FILE “05 – Spielmannsfluch.m4a” WAVE
INDEX 01 00:00:00
TRACK 06 AUDIO
TITLE “Weiberfell”
PERFORMER “In Extremo”
INDEX 00 03:41:64
FILE “06 – Weiberfell.m4a” WAVE
INDEX 01 00:00:00
TRACK 07 AUDIO
TITLE “Miss Gordon of Gight”
PERFORMER “In Extremo”
INDEX 00 04:27:25
FILE “07 – Miss Gordon of Gight.m4a” WAVE
INDEX 01 00:00:00
TRACK 08 AUDIO
TITLE “Werd ich am Galgen hochgezogen”
PERFORMER “In Extremo”
INDEX 00 02:10:12
FILE “08 – Werd ich am Galgen hochgezogen.m4a” WAVE
INDEX 01 00:00:00
TRACK 09 AUDIO
TITLE “This Corrosion”
PERFORMER “In Extremo”
INDEX 00 03:47:16
FILE “09 – This Corrosion.m4a” WAVE
INDEX 01 00:00:00
TRACK 10 AUDIO
TITLE “Santa Maria”
PERFORMER “In Extremo”
INDEX 00 04:01:69
FILE “10 – Santa Maria.m4a” WAVE
INDEX 01 00:00:00
TRACK 11 AUDIO
TITLE “Vänner och Frände”
PERFORMER “In Extremo”
INDEX 00 04:28:58
FILE “11 – Vänner och Frände.m4a” WAVE
INDEX 01 00:00:00
TRACK 12 AUDIO
TITLE “In Extremo”
PERFORMER “In Extremo”
INDEX 00 03:58:26
FILE “12 – In Extremo.m4a” WAVE
INDEX 01 00:00:00
TRACK 13 AUDIO
TITLE “Herr Mannelig (acoustic version)”
PERFORMER “In Extremo”
INDEX 00 04:28:01
FILE “13 – Herr Mannelig (acoustic version).m4a” WAVE
INDEX 01 00:00:00

Exact Audio Copy V1.0 beta 3 from 29. August 2011

Отчёт EAC об извлечении, выполненном 20. декабря 2014, 22:30

In Extremo / Verehrt Und Angespien

Дисковод: Optiarc DVD RW AD-7200S Adapter: 1 ID: 0

Режим чтения : Достоверность
Использование точного потока : Да
Отключение кэша аудио : Да
Использование указателей C2 : Нет

Коррекция смещения при чтении : 48
Способность читать области Lead-in и Lead-out : Нет
Заполнение пропущенных сэмплов тишиной : Да
Удаление блоков с тишиной в начале и конце : Нет
При вычислениях CRC использовались нулевые сэмплы : Да
Интерфейс : Встроенный Win32-интерфейс для Win NT/2000

Выходной формат : Пользовательский кодировщик
Выбранный битрейт : 896 kBit/s
Качество : Высокий
Добавление ID3-тега : Нет
Утилита сжатия : D:\Program Files\EACPortable\App\EAC\FLAC\flac.exe
Дополнительные параметры : -6 -V -T “ARTIST=%artist%” -T “TITLE=%title%” -T “ALBUM=%albumtitle%” -T “DATE=%year%” -T “TRACKNUMBER=%tracknr%” -T “GENRE=%genre%” -T “COMMENT=%comment%” %hascover%–picture=”%coverfile%”%hascover% %source% -o %dest%

TOC извлечённого CD

Трек | Старт | Длительность | Начальный сектор | Конечный сектор
———————————————————————
1 | 0:00.00 | 4:28.43 | 0 | 20142
2 | 4:28.43 | 3:07.06 | 20143 | 34173
3 | 7:35.49 | 4:56.43 | 34174 | 56416
4 | 12:32.17 | 5:01.23 | 56417 | 79014
5 | 17:33.40 | 3:42.36 | 79015 | 95700
6 | 21:16.01 | 4:29.73 | 95701 | 115948
7 | 25:45.74 | 2:11.59 | 115949 | 125832
8 | 27:57.58 | 3:49.63 | 125833 | 143070
9 | 31:47.46 | 4:02.04 | 143071 | 161224
10 | 35:49.50 | 4:30.30 | 161225 | 181504
11 | 40:20.05 | 3:59.73 | 181505 | 199502
12 | 44:20.03 | 4:29.72 | 199503 | 219749
13 | 48:50.00 | 3:08.32 | 219750 | 233881

Характеристики диапазона извлечения и сообщения об ошибках

Выбранный диапазон

Имя файла C:\Users\Rohai\Desktop\Всё!\Рипы\In Extremo – Verehrt Und Angespien.wav

Пиковый уровень 99.9 %
Скорость извлечения 3.9 X
Качество диапазона 100.0 %
CRC теста C8B968FA
CRC копии C8B968FA
Копирование… OK

Ошибок не произошло

AccurateRip: сводка

Трек 1 : извлечено точно (доверие 2) [F47B53B2] (AR v2)
Трек 2 : извлечено точно (доверие 2) [A5F5B050] (AR v2)
Трек 3 : извлечено точно (доверие 2) [8E26E719] (AR v2)
Трек 4 : извлечено точно (доверие 2) [4B940B78] (AR v2)
Трек 5 : извлечено точно (доверие 2) [9026DA17] (AR v2)
Трек 6 : извлечено точно (доверие 2) [1CEB2DA9] (AR v2)
Трек 7 : извлечено точно (доверие 2) [D400FF47] (AR v2)
Трек 8 : извлечено точно (доверие 2) [F144189C] (AR v2)
Трек 9 : извлечено точно (доверие 2) [6E543198] (AR v2)
Трек 10 : извлечено точно (доверие 2) [11A13A08] (AR v2)
Трек 11 : извлечено точно (доверие 2) [27A5AD50] (AR v2)
Трек 12 : извлечено точно (доверие 2) [725E8B47] (AR v2)
Трек 13 : извлечено точно (доверие 2) [99B1F99D] (AR v2)

Все треки извлечены точно

Конец отчёта


Leave a Reply

Your email address will not be published. Required fields are marked *

This site uses Akismet to reduce spam. Learn how your comment data is processed.