In Extremo – Sünder Ohne Zügel




Artist: In Extremo
Year: 2001
Genre: Rock
Notes: Discogs
Add. Notes:
Cover incl.: Yes
Encoder: ALAC
Bitrate: ~1100 kBit/s (44.1 kHz/16 Bit/s)
Log & Cue incl.: Yes
Size: 496,29 MB
Password: “slam” (without ” “)


All Downloads/Hosters are compatible

Download 1
Turbobit.net
Rapidgator.net
KatFile.com
UploadRar.com
Download 2
Turbobit.net
Rapidgator.net
KatFile.com
UploadRar.com

Tracklist:

1 - Wind - 4:25
2 - Krummavisur - 3:48
3 - Lebensbeichte - 4:40
4 - Merseburger Zaubersprüche II - 4:24
5 - Stetit Puella - 4:05
6 - Vollmond - 3:46
7 - Die Gier - 4:03
8 - Omnia Sol Temperat - 4:15
9 - Le 'or Chiyuchech - 3:11
10 - Der Rattenfänger - 4:16
11 - Óskasteiner - 3:25
12 - Nature Nous Semont - 4:32
13 - Unter Dem Meer - 5:13

EAC-Log, CUE-Sheed & NFO:

Click to open spoiler
Exact Audio Copy V1.0 beta 3 from 29. August 2011

Отчёт EAC об извлечении, выполненном 12. января 2015, 11:42

In Extremo / Sunder ohne Zugel

Дисковод: Optiarc DVD RW AD-7200S Adapter: 1 ID: 0

Режим чтения : Достоверность
Использование точного потока : Да
Отключение кэша аудио : Да
Использование указателей C2 : Нет

Коррекция смещения при чтении : 48
Способность читать области Lead-in и Lead-out : Нет
Заполнение пропущенных сэмплов тишиной : Да
Удаление блоков с тишиной в начале и конце : Нет
При вычислениях CRC использовались нулевые сэмплы : Да
Интерфейс : Встроенный Win32-интерфейс для Win NT/2000

Выходной формат : Пользовательский кодировщик
Выбранный битрейт : 896 kBit/s
Качество : Высокий
Добавление ID3-тега : Нет
Утилита сжатия : D:\Program Files\EACPortable\App\EAC\FLAC\flac.exe
Дополнительные параметры : -6 -V -T “ARTIST=%artist%” -T “TITLE=%title%” -T “ALBUM=%albumtitle%” -T “DATE=%year%” -T “TRACKNUMBER=%tracknr%” -T “GENRE=%genre%” -T “COMMENT=%comment%” %hascover%–picture=”%coverfile%”%hascover% %source% -o %dest%

TOC извлечённого CD

Трек | Старт | Длительность | Начальный сектор | Конечный сектор
———————————————————————
1 | 0:00.00 | 4:25.48 | 0 | 19922
2 | 4:25.48 | 3:48.66 | 19923 | 37088
3 | 8:14.39 | 4:39.64 | 37089 | 58077
4 | 12:54.28 | 4:22.54 | 58078 | 77781
5 | 17:17.07 | 4:05.10 | 77782 | 96166
6 | 21:22.17 | 4:00.57 | 96167 | 114223
7 | 25:22.74 | 3:46.73 | 114224 | 131246
8 | 29:09.72 | 4:14.49 | 131247 | 150345
9 | 33:24.46 | 3:11.11 | 150346 | 164681
10 | 36:35.57 | 4:14.48 | 164682 | 183779
11 | 40:50.30 | 3:24.41 | 183780 | 199120
12 | 44:14.71 | 4:32.49 | 199121 | 219569
13 | 48:47.45 | 5:12.55 | 219570 | 243024
14 | 56:32.25 | 16:17.31 | 254425 | 327730

Характеристики диапазона извлечения и сообщения об ошибках

Выбранный диапазон

Имя файла C:\Users\Rohai\Desktop\Всё!\Рипы\In Extremo – Sunder ohne Zugel.wav

Пиковый уровень 100.0 %
Скорость извлечения 4.0 X
Качество диапазона 99.9 %
CRC теста 9F2C76F4
CRC копии 9F2C76F4
Копирование… OK

Ошибок не произошло

AccurateRip: сводка

Трек 1 : извлечено точно (доверие 2) [425EF222] (AR v1)
Трек 2 : извлечено точно (доверие 2) [AF24797D] (AR v1)
Трек 3 : извлечено точно (доверие 2) [7818EE28] (AR v1)
Трек 4 : извлечено точно (доверие 2) [077912DB] (AR v1)
Трек 5 : извлечено точно (доверие 2) [0F685321] (AR v1)
Трек 6 : извлечено точно (доверие 2) [CB79ADB6] (AR v1)
Трек 7 : извлечено точно (доверие 2) [5279C3B6] (AR v1)
Трек 8 : извлечено точно (доверие 2) [719BDE93] (AR v1)
Трек 9 : извлечено точно (доверие 2) [2E9814FC] (AR v1)
Трек 10 : извлечено точно (доверие 2) [9D0C8892] (AR v1)
Трек 11 : извлечено точно (доверие 2) [68C3A8E6] (AR v1)
Трек 12 : извлечено точно (доверие 2) [22EC6E38] (AR v1)
Трек 13 : извлечено точно (доверие 2) [D30F41C8] (AR v1)

Все треки извлечены точно

Конец отчёта

REM ACCURATERIPID 001b281c-0113758c-d211110e
REM GENRE “Medieval Folk Metal”
REM DATE 2001
REM DISCID D211110E
PERFORMER “In Extremo”
TITLE “Sünder ohne Zügel”
CATALOG 0039841442427
REM DISCNUMBER 1
REM TOTALDISCS 1
FILE “01 – Wind.m4a” WAVE
TRACK 01 AUDIO
TITLE “Wind”
PERFORMER “In Extremo”
INDEX 01 00:00:00
TRACK 02 AUDIO
TITLE “Krummavísur”
PERFORMER “In Extremo”
INDEX 00 04:24:04
FILE “02 – Krummavísur.m4a” WAVE
INDEX 01 00:00:00
TRACK 03 AUDIO
TITLE “Lebensbeichte”
PERFORMER “In Extremo”
INDEX 00 03:47:18
FILE “03 – Lebensbeichte.m4a” WAVE
INDEX 01 00:00:00
TRACK 04 AUDIO
TITLE “Merseburger Zaubersprüche II”
PERFORMER “In Extremo”
INDEX 00 04:38:07
FILE “04 – Merseburger Zaubersprüche II.m4a” WAVE
INDEX 01 00:00:00
TRACK 05 AUDIO
TITLE “Stetit puella”
PERFORMER “In Extremo”
INDEX 00 04:21:39
FILE “05 – Stetit puella.m4a” WAVE
INDEX 01 00:00:00
TRACK 06 AUDIO
TITLE “Vollmond”
PERFORMER “In Extremo”
INDEX 00 04:03:41
FILE “06 – Vollmond.m4a” WAVE
INDEX 01 00:00:00
TRACK 07 AUDIO
TITLE “Die Gier”
PERFORMER “In Extremo”
INDEX 00 03:59:05
FILE “07 – Die Gier.m4a” WAVE
INDEX 01 00:00:00
TRACK 08 AUDIO
TITLE “Omnia sol temperat”
PERFORMER “In Extremo”
INDEX 00 03:45:35
FILE “08 – Omnia sol temperat.m4a” WAVE
INDEX 01 00:00:00
TRACK 09 AUDIO
TITLE “Le ‘or Chiyuchech”
PERFORMER “In Extremo”
INDEX 00 04:13:03
FILE “09 – Le ‘or Chiyuchech.m4a” WAVE
INDEX 01 00:00:00
TRACK 10 AUDIO
TITLE “Der Rattenfänger”
PERFORMER “In Extremo”
INDEX 00 03:09:38
FILE “10 – Der Rattenfänger.m4a” WAVE
INDEX 01 00:00:00
TRACK 11 AUDIO
TITLE “Óskasteinar”
PERFORMER “In Extremo”
INDEX 00 04:13:03
FILE “11 – Óskasteinar.m4a” WAVE
INDEX 01 00:00:00
TRACK 12 AUDIO
TITLE “Nature nous semont”
PERFORMER “In Extremo”
INDEX 00 03:23:05
FILE “12 – Nature nous semont.m4a” WAVE
INDEX 01 00:00:00
TRACK 13 AUDIO
TITLE “Unter dem Meer”
PERFORMER “In Extremo”
INDEX 00 04:31:01
FILE “13 – Unter dem Meer.m4a” WAVE
INDEX 01 00:00:00


Leave a Reply

Your email address will not be published. Required fields are marked *

Enter the text from the image below
 

This site uses Akismet to reduce spam. Learn how your comment data is processed.