In Extremo – Sterneneisen




Artist: In Extremo
Year: 2011
Genre: Rock
Notes: Discogs
Add. Notes:
Cover incl.: Yes
Encoder: ALAC
Bitrate: ~1000 kBit/s (44.1 kHz/16 Bit/s)
Log & Cue incl.: Yes
Size: 456,18 MB
Password: “slam” (without ” “)


All Downloads/Hosters are compatible

Download 1
Turbobit.net
Rapidgator.net
UploadEver.com
KatFile.com
UsersDrive.com
Download 2
Turbobit.net
Rapidgator.net
UploadEver.com
KatFile.com
UsersDrive.com
Download 3
Turbobit.net
Rapidgator.net
UploadEver.com
KatFile.com
UsersDrive.com

Tracklist:

1 - Zigeunerskat - 4:29
2 - Gold - 3:16
3 - Viva La Vida - 3:35
4 - Siehst Du Das Licht - 4:18
5 - Stalker - 4:02
6 - Hol Die Sterne - 4:05
7 - Sterneneisen - 3:10
8 - Zauberspruch No. VII - 3:54
9 - Auge Um Auge - 4:18
10 - Schau Zum Mond - 3:41
11 - Unsichtbar - 3:47
12 - Ich Vermiss Dich - 3:51

EAC-Log, CUE-Sheed & NFO:

Click to open spoiler
Exact Audio Copy V1.0 beta 3 from 29. August 2011

Отчёт EAC об извлечении, выполненном 3. декабря 2014, 13:42

In Extremo / Sterneneisen

Дисковод: Optiarc DVD RW AD-7200S Adapter: 1 ID: 0

Режим чтения : Достоверность
Использование точного потока : Да
Отключение кэша аудио : Да
Использование указателей C2 : Нет

Коррекция смещения при чтении : 48
Способность читать области Lead-in и Lead-out : Нет
Заполнение пропущенных сэмплов тишиной : Да
Удаление блоков с тишиной в начале и конце : Нет
При вычислениях CRC использовались нулевые сэмплы : Да
Интерфейс : Встроенный Win32-интерфейс для Win NT/2000

Выходной формат : Пользовательский кодировщик
Выбранный битрейт : 896 kBit/s
Качество : Высокий
Добавление ID3-тега : Нет
Утилита сжатия : D:\Program Files\EACPortable\App\EAC\FLAC\flac.exe
Дополнительные параметры : -6 -V -T “ARTIST=%artist%” -T “TITLE=%title%” -T “ALBUM=%albumtitle%” -T “DATE=%year%” -T “TRACKNUMBER=%tracknr%” -T “GENRE=%genre%” -T “COMMENT=%comment%” %hascover%–picture=”%coverfile%”%hascover% %source% -o %dest%

TOC извлечённого CD

Трек | Старт | Длительность | Начальный сектор | Конечный сектор
———————————————————————
1 | 0:00.00 | 4:29.73 | 0 | 20247
2 | 4:29.73 | 3:14.70 | 20248 | 34867
3 | 7:44.68 | 3:35.61 | 34868 | 51053
4 | 11:20.54 | 4:18.08 | 51054 | 70411
5 | 15:38.62 | 4:02.61 | 70412 | 88622
6 | 19:41.48 | 4:05.02 | 88623 | 106999
7 | 23:46.50 | 3:10.19 | 107000 | 121268
8 | 26:56.69 | 3:54.33 | 121269 | 138851
9 | 30:51.27 | 4:18.35 | 138852 | 158236
10 | 35:09.62 | 3:41.31 | 158237 | 174842
11 | 38:51.18 | 3:47.73 | 174843 | 191940
12 | 42:39.16 | 3:51.72 | 191941 | 209337
13 | 49:03.13 | 14:50.74 | 220738 | 287561

Характеристики диапазона извлечения и сообщения об ошибках

Выбранный диапазон

Имя файла C:\Users\Rohai\Desktop\Всё!\Рипы\In Extremo – Sterneneisen.wav

Пиковый уровень 98.2 %
Скорость извлечения 4.0 X
Качество диапазона 100.0 %
CRC теста E02C99AB
CRC копии E02C99AB
Копирование… OK

Ошибок не произошло

AccurateRip: сводка

Трек 1 : извлечено точно (доверие 97) [FE97D79D] (AR v2)
Трек 2 : извлечено точно (доверие 97) [00DBE7AE] (AR v2)
Трек 3 : извлечено точно (доверие 95) [7FC30C86] (AR v2)
Трек 4 : извлечено точно (доверие 97) [77E8AD0B] (AR v2)
Трек 5 : извлечено точно (доверие 97) [18513759] (AR v2)
Трек 6 : извлечено точно (доверие 95) [F60F8922] (AR v2)
Трек 7 : извлечено точно (доверие 95) [9AF0E6C0] (AR v2)
Трек 8 : извлечено точно (доверие 96) [5BE4D3C9] (AR v2)
Трек 9 : извлечено точно (доверие 96) [CE830A47] (AR v2)
Трек 10 : извлечено точно (доверие 96) [686C11D2] (AR v2)
Трек 11 : извлечено точно (доверие 97) [5A85EA5C] (AR v2)
Трек 12 : извлечено точно (доверие 96) [0DDDFA02] (AR v2)

Все треки извлечены точно

Конец отчёта

REM ACCURATERIPID 00160c2d-00d1cbb8-a80efa0d
REM GENRE “Medieval Folk Metal”
REM DATE 2011
REM DISCID A80EFA0D
PERFORMER “In Extremo”
TITLE “Sterneneisen”
CATALOG 0602527613550
REM DISCNUMBER 1
REM TOTALDISCS 1
FILE “01 – Zigeunerskat.m4a” WAVE
TRACK 01 AUDIO
TITLE “Zigeunerskat”
PERFORMER “In Extremo”
INDEX 01 00:00:00
FILE “02 – Gold.m4a” WAVE
TRACK 02 AUDIO
TITLE “Gold”
PERFORMER “In Extremo”
INDEX 01 00:00:00
FILE “03 – Viva la Vida.m4a” WAVE
TRACK 03 AUDIO
TITLE “Viva la Vida”
PERFORMER “In Extremo”
INDEX 01 00:00:00
FILE “04 – Siehst du das Licht.m4a” WAVE
TRACK 04 AUDIO
TITLE “Siehst du das Licht”
PERFORMER “In Extremo”
INDEX 01 00:00:00
FILE “05 – Stalker.m4a” WAVE
TRACK 05 AUDIO
TITLE “Stalker”
PERFORMER “In Extremo”
INDEX 01 00:00:00
FILE “06 – Hol die Sterne.m4a” WAVE
TRACK 06 AUDIO
TITLE “Hol die Sterne”
PERFORMER “In Extremo feat. Der Graf”
INDEX 01 00:00:00
FILE “07 – Sterneneisen.m4a” WAVE
TRACK 07 AUDIO
TITLE “Sterneneisen”
PERFORMER “In Extremo”
INDEX 01 00:00:00
FILE “08 – Zauberspruch No. VII.m4a” WAVE
TRACK 08 AUDIO
TITLE “Zauberspruch No. VII”
PERFORMER “In Extremo”
INDEX 01 00:00:00
FILE “09 – Auge um Auge.m4a” WAVE
TRACK 09 AUDIO
TITLE “Auge um Auge”
PERFORMER “In Extremo”
INDEX 01 00:00:00
FILE “10 – Schau zum Mond.m4a” WAVE
TRACK 10 AUDIO
TITLE “Schau zum Mond”
PERFORMER “In Extremo”
INDEX 01 00:00:00
FILE “11 – Unsichtbar.m4a” WAVE
TRACK 11 AUDIO
TITLE “Unsichtbar”
PERFORMER “In Extremo feat. Mille Petrozza”
INDEX 01 00:00:00
FILE “12 – Ich vermiss dich.m4a” WAVE
TRACK 12 AUDIO
TITLE “Ich vermiss dich”
PERFORMER “In Extremo”
INDEX 01 00:00:00

Leave a Reply

Your email address will not be published. Required fields are marked *

Enter the text from the image below
 

This site uses Akismet to reduce spam. Learn how your comment data is processed.