In Extremo – Mein Rasend Herz (Limited Edition)




Artist: In Extremo
Year: 2005
Genre: Rock
Notes: Discogs
Add. Notes: Limited Edition
Cover incl.: Yes
Encoder: ALAC
Bitrate: ~1100 kBit/s (44.1 kHz/16 Bit/s)
Log & Cue incl.: Yes
Size: 491,73 MB
Password: “slam” (without ” “)


All Downloads/Hosters are compatible

Download 1
Turbobit.net
Rapidgator.net
KatFile.com
UploadRar.com
Download 2
Turbobit.net
Rapidgator.net
KatFile.com
UploadRar.com
Download 3
Turbobit.net
Rapidgator.net
KatFile.com
UploadRar.com

Tracklist:

1 - Raue See - 4:29
2 - Horizont - 3:38
3 - Wessebronner Gebet - 4:24
4 - Nur Ihr Allein - 3:51
5 - Fontaine La Jolie - 4:37
6 - Macht Und Dummheit - 4:10
7 - Tannhuser - 3:08
8 - Liam - 3:49
9 - Rasend Herz - 4:05
10 - Singapur - 3:54
11 - Poc Vecem - 4:37
12 - Spielmann - 3:33
13 - Liam (German Version) - 3:49

EAC-Log, CUE-Sheed & NFO:

Click to open spoiler
Exact Audio Copy V1.0 beta 3 from 29. August 2011

Отчёт EAC об извлечении, выполненном 12. декабря 2014, 19:54

In Extremo / Mein Rasend Herz

Дисковод: Optiarc DVD RW AD-7200S Adapter: 1 ID: 0

Режим чтения : Достоверность
Использование точного потока : Да
Отключение кэша аудио : Да
Использование указателей C2 : Нет

Коррекция смещения при чтении : 48
Способность читать области Lead-in и Lead-out : Нет
Заполнение пропущенных сэмплов тишиной : Да
Удаление блоков с тишиной в начале и конце : Нет
При вычислениях CRC использовались нулевые сэмплы : Да
Интерфейс : Встроенный Win32-интерфейс для Win NT/2000

Выходной формат : Пользовательский кодировщик
Выбранный битрейт : 896 kBit/s
Качество : Высокий
Добавление ID3-тега : Нет
Утилита сжатия : D:\Program Files\EACPortable\App\EAC\FLAC\flac.exe
Дополнительные параметры : -6 -V -T “ARTIST=%artist%” -T “TITLE=%title%” -T “ALBUM=%albumtitle%” -T “DATE=%year%” -T “TRACKNUMBER=%tracknr%” -T “GENRE=%genre%” -T “COMMENT=%comment%” %hascover%–picture=”%coverfile%”%hascover% %source% -o %dest%

TOC извлечённого CD

Трек | Старт | Длительность | Начальный сектор | Конечный сектор
———————————————————————
1 | 0:00.00 | 4:29.19 | 0 | 20193
2 | 4:29.19 | 3:38.73 | 20194 | 36616
3 | 8:08.17 | 4:25.61 | 36617 | 56552
4 | 12:34.03 | 3:54.68 | 56553 | 74170
5 | 16:28.71 | 4:37.57 | 74171 | 95002
6 | 21:06.53 | 4:13.20 | 95003 | 113997
7 | 25:19.73 | 3:09.08 | 113998 | 128180
8 | 28:29.06 | 3:48.56 | 128181 | 145336
9 | 32:17.62 | 4:05.32 | 145337 | 163743
10 | 36:23.19 | 3:53.68 | 163744 | 181286
11 | 40:17.12 | 4:36.74 | 181287 | 202060
12 | 44:54.11 | 3:31.03 | 202061 | 217888
13 | 48:25.14 | 3:51.55 | 217889 | 235268
14 | 54:48.69 | 15:37.42 | 246669 | 316985

Характеристики диапазона извлечения и сообщения об ошибках

Выбранный диапазон

Имя файла C:\Users\Rohai\Desktop\Всё!\Рипы\In Extremo – Mein Rasend Herz.wav

Пиковый уровень 99.8 %
Скорость извлечения 3.9 X
Качество диапазона 100.0 %
CRC теста 5A373D93
CRC копии 5A373D93
Копирование… OK

Ошибок не произошло

AccurateRip: сводка

Трек 1 : извлечено точно (доверие 10) [B2ABA66A] (AR v2)
Трек 2 : извлечено точно (доверие 10) [8A5EC469] (AR v2)
Трек 3 : извлечено точно (доверие 10) [75D884F9] (AR v2)
Трек 4 : извлечено точно (доверие 10) [2215BFBE] (AR v2)
Трек 5 : извлечено точно (доверие 9) [16DD605A] (AR v2)
Трек 6 : извлечено точно (доверие 10) [13906A72] (AR v2)
Трек 7 : извлечено точно (доверие 10) [FF58934A] (AR v2)
Трек 8 : извлечено точно (доверие 10) [E2DE3CC6] (AR v2)
Трек 9 : извлечено точно (доверие 10) [7C25DC3E] (AR v2)
Трек 10 : извлечено точно (доверие 10) [167D8D34] (AR v2)
Трек 11 : извлечено точно (доверие 10) [02FD95CB] (AR v2)
Трек 12 : извлечено точно (доверие 10) [9BB9785A] (AR v2)
Трек 13 : извлечено точно (доверие 9) [64053F1F] (AR v2)

Все треки извлечены точно

Конец отчёта

REM ACCURATERIPID 001abbd5-010f3b7a-ce10820e
REM GENRE “Medieval Folk Metal”
REM DATE 2005
REM DISCID CE10820E
PERFORMER “In Extremo”
TITLE “Mein rasend Herz”
CATALOG 0602498718025
REM DISCNUMBER 1
REM TOTALDISCS 1
FILE “01 – Raue See.m4a” WAVE
TRACK 01 AUDIO
TITLE “Raue See”
PERFORMER “In Extremo”
INDEX 01 00:00:00
FILE “02 – Horizont.m4a” WAVE
TRACK 02 AUDIO
TITLE “Horizont”
PERFORMER “In Extremo”
INDEX 01 00:00:00
TRACK 03 AUDIO
TITLE “Wessebronner Gebet”
PERFORMER “In Extremo”
INDEX 00 03:37:47
FILE “03 – Wessebronner Gebet.m4a” WAVE
INDEX 01 00:00:00
TRACK 04 AUDIO
TITLE “Nur ihr allein”
PERFORMER “In Extremo”
INDEX 00 04:23:53
FILE “04 – Nur ihr allein.m4a” WAVE
INDEX 01 00:00:00
TRACK 05 AUDIO
TITLE “Fontaine la jolie”
PERFORMER “In Extremo”
INDEX 00 03:51:28
FILE “05 – Fontaine la jolie.m4a” WAVE
INDEX 01 00:00:00
TRACK 06 AUDIO
TITLE “Macht und Dummheit”
PERFORMER “In Extremo”
INDEX 00 04:37:30
FILE “06 – Macht und Dummheit.m4a” WAVE
INDEX 01 00:00:00
TRACK 07 AUDIO
TITLE “Tannhuser”
PERFORMER “In Extremo”
INDEX 00 04:09:49
FILE “07 – Tannhuser.m4a” WAVE
INDEX 01 00:00:00
TRACK 08 AUDIO
TITLE “Liam”
PERFORMER “In Extremo”
INDEX 00 03:08:32
FILE “08 – Liam.m4a” WAVE
INDEX 01 00:00:00
TRACK 09 AUDIO
TITLE “Rasend Herz”
PERFORMER “In Extremo”
INDEX 00 03:48:39
FILE “09 – Rasend Herz.m4a” WAVE
INDEX 01 00:00:00
FILE “10 – Singapur.m4a” WAVE
TRACK 10 AUDIO
TITLE “Singapur”
PERFORMER “In Extremo”
INDEX 01 00:00:00
TRACK 11 AUDIO
TITLE “Poc Vecem”
PERFORMER “In Extremo”
INDEX 00 03:53:57
FILE “11 – Poc Vecem.m4a” WAVE
INDEX 01 00:00:00
FILE “12 – Spielmann.m4a” WAVE
TRACK 12 AUDIO
TITLE “Spielmann”
PERFORMER “In Extremo”
INDEX 01 00:00:00
FILE “13 – Liam (German version).m4a” WAVE
TRACK 13 AUDIO
TITLE “Liam (German version)”
PERFORMER “In Extremo”
INDEX 01 00:00:00


Leave a Reply

Your email address will not be published. Required fields are marked *

Enter the text from the image below
 

This site uses Akismet to reduce spam. Learn how your comment data is processed.