In Extremo – Kunstraub (Limited Edition)




Artist: In Extremo
Year: 2013
Genre: Rock
Notes: Discogs
Add. Notes: Limited Edition
Cover incl.: Yes
Encoder: ALAC
Bitrate: ~1000 kBit/s (44.1 kHz/16 Bit/s)
Log & Cue incl.: Yes
Size: 489,56 MB
Password: “slam” (without ” “)


All Downloads/Hosters are compatible

Download 1
Turbobit.net
Rapidgator.net
UploadEver.com
KatFile.com
UsersDrive.com
Download 2
Turbobit.net
Rapidgator.net
UploadEver.com
KatFile.com
UsersDrive.com
Download 3
Turbobit.net
Rapidgator.net
UploadEver.com
KatFile.com
UsersDrive.com

Tracklist:

1. Der Die Sonne Schlafen Schickt 
2. Wege Ohne Namen 
3. Lebemann 
4. Himmel Und Hölle 
5. Gaukler 
6. Kunstraub 
7. Feuertaufe 
8. Du Und Ich 
9. Doof 
10. Alles Schon Gesehen 
11. Belladonna 
12. Die Beute 
Bonus:
13. Bunter Vogel 
14. Meie Din

EAC-Log, CUE-Sheed & NFO:

Click to open spoiler
Exact Audio Copy V1.0 beta 3 from 29. August 2011

Отчёт EAC об извлечении, выполненном 12. декабря 2014, 23:21

In Extremo / Kunstraub

Дисковод: Optiarc DVD RW AD-7200S Adapter: 1 ID: 0

Режим чтения : Достоверность
Использование точного потока : Да
Отключение кэша аудио : Да
Использование указателей C2 : Нет

Коррекция смещения при чтении : 48
Способность читать области Lead-in и Lead-out : Нет
Заполнение пропущенных сэмплов тишиной : Да
Удаление блоков с тишиной в начале и конце : Нет
При вычислениях CRC использовались нулевые сэмплы : Да
Интерфейс : Встроенный Win32-интерфейс для Win NT/2000

Выходной формат : Пользовательский кодировщик
Выбранный битрейт : 896 kBit/s
Качество : Высокий
Добавление ID3-тега : Нет
Утилита сжатия : D:\Program Files\EACPortable\App\EAC\FLAC\flac.exe
Дополнительные параметры : -6 -V -T “ARTIST=%artist%” -T “TITLE=%title%” -T “ALBUM=%albumtitle%” -T “DATE=%year%” -T “TRACKNUMBER=%tracknr%” -T “GENRE=%genre%” -T “COMMENT=%comment%” %hascover%–picture=”%coverfile%”%hascover% %source% -o %dest%

TOC извлечённого CD

Трек | Старт | Длительность | Начальный сектор | Конечный сектор
———————————————————————
1 | 0:00.00 | 3:56.69 | 0 | 17768
2 | 3:56.69 | 4:23.38 | 17769 | 37531
3 | 8:20.32 | 3:22.35 | 37532 | 52716
4 | 11:42.67 | 3:56.53 | 52717 | 70469
5 | 15:39.45 | 3:52.39 | 70470 | 87908
6 | 19:32.09 | 3:24.13 | 87909 | 103221
7 | 22:56.22 | 3:27.09 | 103222 | 118755
8 | 26:23.31 | 3:30.57 | 118756 | 134562
9 | 29:54.13 | 3:50.64 | 134563 | 151876
10 | 33:45.02 | 3:29.56 | 151877 | 167607
11 | 37:14.58 | 4:01.54 | 167608 | 185736
12 | 41:16.37 | 3:42.20 | 185737 | 202406
13 | 44:58.57 | 4:36.63 | 202407 | 223169
14 | 49:35.45 | 4:30.45 | 223170 | 243464

Характеристики диапазона извлечения и сообщения об ошибках

Выбранный диапазон

Имя файла C:\Users\Rohai\Desktop\Всё!\Рипы\In Extremo – Kunstraub.wav

Пиковый уровень 98.2 %
Скорость извлечения 3.9 X
Качество диапазона 100.0 %
CRC теста 47668130
CRC копии 47668130
Копирование… OK

Ошибок не произошло

AccurateRip: сводка

Трек 1 : извлечено точно (доверие 8) [BA1972C5] (AR v2)
Трек 2 : извлечено точно (доверие 8) [F11E56B7] (AR v2)
Трек 3 : извлечено точно (доверие 8) [161AE013] (AR v2)
Трек 4 : извлечено точно (доверие 8) [5B0A153C] (AR v2)
Трек 5 : извлечено точно (доверие 8) [33AA19CF] (AR v2)
Трек 6 : извлечено точно (доверие 8) [EC7041DA] (AR v2)
Трек 7 : извлечено точно (доверие 8) [4F9DB8B1] (AR v2)
Трек 8 : извлечено точно (доверие 8) [87DCF459] (AR v2)
Трек 9 : извлечено точно (доверие 8) [56FB451D] (AR v2)
Трек 10 : извлечено точно (доверие 8) [12C02178] (AR v2)
Трек 11 : извлечено точно (доверие 8) [65FEF1D1] (AR v2)
Трек 12 : извлечено точно (доверие 8) [85219868] (AR v2)
Трек 13 : извлечено точно (доверие 8) [0E3DC0A8] (AR v2)
Трек 14 : извлечено точно (доверие 8) [73FBD254] (AR v2)

Все треки извлечены точно

Конец отчёта

REM ACCURATERIPID 001b6c52-0123c510-c80cae0e
REM GENRE “Medieval Folk Metal”
REM DATE 2013
REM DISCID C80CAE0E
PERFORMER “In Extremo”
TITLE “Kunstraub”
CATALOG 0602537492299
REM DISCNUMBER 1
REM TOTALDISCS 1
FILE “01 – Der die Sonne schlafen schickt.m4a” WAVE
TRACK 01 AUDIO
TITLE “Der die Sonne schlafen schickt”
PERFORMER “In Extremo”
INDEX 01 00:00:00
FILE “02 – Wege ohne Namen.m4a” WAVE
TRACK 02 AUDIO
TITLE “Wege ohne Namen”
PERFORMER “In Extremo”
INDEX 01 00:00:00
FILE “03 – Lebemann.m4a” WAVE
TRACK 03 AUDIO
TITLE “Lebemann”
PERFORMER “In Extremo”
INDEX 01 00:00:00
FILE “04 – Himmel und Hölle.m4a” WAVE
TRACK 04 AUDIO
TITLE “Himmel und Hölle”
PERFORMER “In Extremo”
INDEX 01 00:00:00
FILE “05 – Gaukler.m4a” WAVE
TRACK 05 AUDIO
TITLE “Gaukler”
PERFORMER “In Extremo”
INDEX 01 00:00:00
FILE “06 – Kunstraub.m4a” WAVE
TRACK 06 AUDIO
TITLE “Kunstraub”
PERFORMER “In Extremo”
INDEX 01 00:00:00
FILE “07 – Feuertaufe.m4a” WAVE
TRACK 07 AUDIO
TITLE “Feuertaufe”
PERFORMER “In Extremo”
INDEX 01 00:00:00
FILE “08 – Du und ich.m4a” WAVE
TRACK 08 AUDIO
TITLE “Du und ich”
PERFORMER “In Extremo”
INDEX 01 00:00:00
FILE “09 – Doof.m4a” WAVE
TRACK 09 AUDIO
TITLE “Doof”
PERFORMER “In Extremo”
INDEX 01 00:00:00
FILE “10 – Alles schon gesehen.m4a” WAVE
TRACK 10 AUDIO
TITLE “Alles schon gesehen”
PERFORMER “In Extremo”
INDEX 01 00:00:00
FILE “11 – Belladonna.m4a” WAVE
TRACK 11 AUDIO
TITLE “Belladonna”
PERFORMER “In Extremo”
INDEX 01 00:00:00
FILE “12 – Die Beute.m4a” WAVE
TRACK 12 AUDIO
TITLE “Die Beute”
PERFORMER “In Extremo”
INDEX 01 00:00:00
TRACK 13 AUDIO
TITLE “Bunter Vogel”
PERFORMER “In Extremo”
INDEX 00 03:42:11
FILE “13 – Bunter Vogel.m4a” WAVE
INDEX 01 00:00:00
TRACK 14 AUDIO
TITLE “Meie Din”
PERFORMER “In Extremo”
INDEX 00 04:36:36
FILE “14 – Meie Din.m4a” WAVE
INDEX 01 00:00:00


Leave a Reply

Your email address will not be published. Required fields are marked *

This site uses Akismet to reduce spam. Learn how your comment data is processed.