In Extremo – In Exremo Present: Die Goldene (Remastered)




Artist: In Extremo
Year: 1997/2006
Genre: Metal
Notes: Discogs
Add. Notes: Remastered
Cover incl.: Yes
Encoder: ALAC
Bitrate: ~900 kBit/s (44.1 kHz/16 Bit/s)
Log & Cue incl.: Yes
Size: 332,51 MB
Password: “slam” (without ” “)


All Downloads/Hosters are compatible

Download 1
Turbobit.net
Rapidgator.net
UploadEver.com
KatFile.com
UsersDrive.com
Download 2
Turbobit.net
Rapidgator.net
UploadEver.com
KatFile.com
UsersDrive.com
Download 3
Turbobit.net
Rapidgator.net
UploadEver.com
KatFile.com
UsersDrive.com

Tracklist:

1 - Intro- Ecce Rex / Bandary - 8:02
2 - Pavane - 2:52
3 - Schaf Öda Nix Schaf - 3:14
4 - Tourdion - 4:31
5 - Neva Ceng I Harbe - 3:02
6 - Für Bo - 2:36
7 - Quand Je Sui Mis Au Retour - 2:55
8 - Neunerle - 3:05
9 - Lulbap / Como Poden - 5:39
10 - Villeman Og Magnhild - 3:33
11 - Villeman Og Magnhild - Bonus Track - 2:40
12 - Lute - Bonus Track - 2:51

EAC-Log, CUE-Sheed & NFO:

Click to open spoiler
Exact Audio Copy V1.0 beta 3 from 29. August 2011

Отчёт EAC об извлечении, выполненном 23. ноября 2014, 13:47

In Extremo / Die Goldene

Дисковод: Optiarc DVD RW AD-7200S Adapter: 1 ID: 0

Режим чтения : Достоверность
Использование точного потока : Да
Отключение кэша аудио : Да
Использование указателей C2 : Нет

Коррекция смещения при чтении : 48
Способность читать области Lead-in и Lead-out : Нет
Заполнение пропущенных сэмплов тишиной : Да
Удаление блоков с тишиной в начале и конце : Нет
При вычислениях CRC использовались нулевые сэмплы : Да
Интерфейс : Встроенный Win32-интерфейс для Win NT/2000

Выходной формат : Пользовательский кодировщик
Выбранный битрейт : 896 kBit/s
Качество : Высокий
Добавление ID3-тега : Нет
Утилита сжатия : D:\Program Files\EACPortable\App\EAC\FLAC\flac.exe
Дополнительные параметры : -6 -V -T “ARTIST=%artist%” -T “TITLE=%title%” -T “ALBUM=%albumtitle%” -T “DATE=%year%” -T “TRACKNUMBER=%tracknr%” -T “GENRE=%genre%” -T “COMMENT=%comment%” %hascover%–picture=”%coverfile%”%hascover% %source% -o %dest%

TOC извлечённого CD

Трек | Старт | Длительность | Начальный сектор | Конечный сектор
———————————————————————
1 | 0:00.00 | 7:58.05 | 0 | 35854
2 | 7:58.05 | 2:47.61 | 35855 | 48440
3 | 10:45.66 | 3:09.08 | 48441 | 62623
4 | 13:54.74 | 4:27.68 | 62624 | 82716
5 | 18:22.67 | 2:57.37 | 82717 | 96028
6 | 21:20.29 | 2:32.30 | 96029 | 107458
7 | 23:52.59 | 2:52.04 | 107459 | 120362
8 | 26:44.63 | 3:06.21 | 120363 | 134333
9 | 29:51.09 | 5:39.68 | 134334 | 159826
10 | 35:31.02 | 3:34.69 | 159827 | 175945
11 | 39:05.71 | 2:41.34 | 175946 | 188054
12 | 41:47.30 | 2:26.00 | 188055 | 199004

Характеристики диапазона извлечения и сообщения об ошибках

Выбранный диапазон

Имя файла C:\Users\Rohai\Desktop\Всё!\Рипы\In Extremo – Die Goldene.wav

Пиковый уровень 100.0 %
Скорость извлечения 3.6 X
Качество диапазона 99.9 %
CRC теста 3A92C422
CRC копии 3A92C422
Копирование… OK

Ошибок не произошло

AccurateRip: сводка

Трек 1 : извлечено точно (доверие 5) [7A8475B8] (AR v2)
Трек 2 : извлечено точно (доверие 5) [6D0EC968] (AR v2)
Трек 3 : извлечено точно (доверие 5) [23CA4448] (AR v2)
Трек 4 : извлечено точно (доверие 5) [BD8CC3EF] (AR v2)
Трек 5 : извлечено точно (доверие 5) [E99F0BD7] (AR v2)
Трек 6 : извлечено точно (доверие 5) [95A07B48] (AR v2)
Трек 7 : извлечено точно (доверие 5) [5ED9A6FE] (AR v2)
Трек 8 : извлечено точно (доверие 5) [86C6A64E] (AR v2)
Трек 9 : извлечено точно (доверие 5) [9E4F1707] (AR v2)
Трек 10 : извлечено точно (доверие 5) [F182BAE1] (AR v2)
Трек 11 : извлечено точно (доверие 5) [841202F0] (AR v2)
Трек 12 : извлечено точно (доверие 5) [1D5F0622] (AR v2)

Все треки извлечены точно

Конец отчёта

REM ACCURATERIPID 0015865f-00c2af1d-990a5d0c
REM GENRE “Medieval Folk Metal”
REM DISCID 990A5D0C
PERFORMER “In Extremo”
TITLE “Die Goldene”
CATALOG 4015698617320
REM DATE 1997
REM DISCNUMBER 1
REM TOTALDISCS 1
FILE “01 – Intro_ Ecce Rex _ Bandary.m4a” WAVE
TRACK 01 AUDIO
TITLE “Intro: Ecce Rex / Bandary”
PERFORMER “In Extremo”
INDEX 01 00:00:00
TRACK 02 AUDIO
TITLE “Pavane”
PERFORMER “In Extremo”
INDEX 00 07:57:43
FILE “02 – Pavane.m4a” WAVE
INDEX 01 00:00:00
TRACK 03 AUDIO
TITLE “Schaf öda nix Schaf”
PERFORMER “In Extremo”
INDEX 00 02:46:61
FILE “03 – Schaf öda nix Schaf.m4a” WAVE
INDEX 01 00:00:00
TRACK 04 AUDIO
TITLE “Tourdion”
PERFORMER “In Extremo”
INDEX 00 03:08:46
FILE “04 – Tourdion.m4a” WAVE
INDEX 01 00:00:00
TRACK 05 AUDIO
TITLE “Neva Ceng I Harbe”
PERFORMER “In Extremo”
INDEX 00 04:27:31
FILE “05 – Neva Ceng I Harbe.m4a” WAVE
INDEX 01 00:00:00
TRACK 06 AUDIO
TITLE “Für Bo”
PERFORMER “In Extremo”
INDEX 00 02:57:00
FILE “06 – Für Bo.m4a” WAVE
INDEX 01 00:00:00
TRACK 07 AUDIO
TITLE “Quant je sui mis au retour”
PERFORMER “In Extremo”
INDEX 00 02:31:30
FILE “07 – Quant je sui mis au retour.m4a” WAVE
INDEX 01 00:00:00
TRACK 08 AUDIO
TITLE “Neunerle”
PERFORMER “In Extremo”
INDEX 00 02:51:42
FILE “08 – Neunerle.m4a” WAVE
INDEX 01 00:00:00
TRACK 09 AUDIO
TITLE “Lulbap / Como Poden”
PERFORMER “In Extremo”
INDEX 00 03:05:59
FILE “09 – Lulbap _ Como Poden.m4a” WAVE
INDEX 01 00:00:00
TRACK 10 AUDIO
TITLE “Villeman og Magnhild”
PERFORMER “In Extremo”
INDEX 00 05:39:31
FILE “10 – Villeman og Magnhild.m4a” WAVE
INDEX 01 00:00:00
TRACK 11 AUDIO
TITLE “Villeman og Magnhild (bonus track)”
PERFORMER “In Extremo”
INDEX 00 03:33:69
FILE “11 – Villeman og Magnhild (bonus track).m4a” WAVE
INDEX 01 00:00:00
TRACK 12 AUDIO
TITLE “Lute”
PERFORMER “In Extremo”
INDEX 00 02:40:72
FILE “12 – Lute.m4a” WAVE
INDEX 01 00:00:00

Leave a Reply

Your email address will not be published. Required fields are marked *

Enter the text from the image below
 

This site uses Akismet to reduce spam. Learn how your comment data is processed.