In Extremo – Hameln




Artist: In Extremo
Year: 1998
Genre: Rock
Notes: Discogs
Add. Notes:
Cover incl.: Yes
Encoder: ALAC
Bitrate: ~900 kBit/s (44.1 kHz/16 Bit/s)
Log & Cue incl.: Yes
Size: 297,19 MB
Password: “slam” (without ” “)


All Downloads/Hosters are compatible

Download 1
Turbobit.net
Rapidgator.net
KatFile.com
UploadRar.com
Download 2
Turbobit.net
Rapidgator.net
KatFile.com
UploadRar.com
Download 3
Turbobit.net
Rapidgator.net
KatFile.com
UploadRar.com

Tracklist:

1 - Reth - 1:27
2 - Quint Je Soi Mis Ou Retour - 2:49
3 - Stella Splendens - 3:50
4 - Vor Vollen Schüsseln - 3:36
5 - Traubentritt - 3:54
6 - Two Søstra / Harpa - 2:40
7 - Reth - 0:34
8 - Estampie - 1:40
9 - Dödet - 3:24
10 - *Französisch* - 2:24
11 - Reth / Tierliebe - 1:41
12 - Wie Kann Ich Das Herz Meiner Liebsten Gewinnen - 
2:16
13 - Hameln - 5:03
14 - Merseburger Zaubersprüche - 2:14
15 - Lyte - 4:49
16 - Bonus Für Insider - 0:46

EAC-Log, CUE-Sheed & NFO:

Click to open spoiler
Exact Audio Copy V1.0 beta 3 from 29. August 2011

Отчёт EAC об извлечении, выполненном 30. ноября 2014, 21:33

In Extremo / Hameln

Дисковод: Optiarc DVD RW AD-7200S Adapter: 1 ID: 0

Режим чтения : Достоверность
Использование точного потока : Да
Отключение кэша аудио : Да
Использование указателей C2 : Нет

Коррекция смещения при чтении : 48
Способность читать области Lead-in и Lead-out : Нет
Заполнение пропущенных сэмплов тишиной : Да
Удаление блоков с тишиной в начале и конце : Нет
При вычислениях CRC использовались нулевые сэмплы : Да
Интерфейс : Встроенный Win32-интерфейс для Win NT/2000

Выходной формат : Пользовательский кодировщик
Выбранный битрейт : 896 kBit/s
Качество : Высокий
Добавление ID3-тега : Нет
Утилита сжатия : D:\Program Files\EACPortable\App\EAC\FLAC\flac.exe
Дополнительные параметры : -6 -V -T “ARTIST=%artist%” -T “TITLE=%title%” -T “ALBUM=%albumtitle%” -T “DATE=%year%” -T “TRACKNUMBER=%tracknr%” -T “GENRE=%genre%” -T “COMMENT=%comment%” %hascover%–picture=”%coverfile%”%hascover% %source% -o %dest%

TOC извлечённого CD

Трек | Старт | Длительность | Начальный сектор | Конечный сектор
———————————————————————
1 | 0:00.00 | 1:27.70 | 0 | 6594
2 | 1:27.70 | 2:49.73 | 6595 | 19342
3 | 4:17.68 | 3:50.33 | 19343 | 36625
4 | 8:08.26 | 3:36.49 | 36626 | 52874
5 | 11:45.00 | 3:54.01 | 52875 | 70425
6 | 15:39.01 | 2:40.31 | 70426 | 82456
7 | 18:19.32 | 0:34.27 | 82457 | 85033
8 | 18:53.59 | 1:40.25 | 85034 | 92558
9 | 20:34.09 | 3:24.50 | 92559 | 107908
10 | 23:58.59 | 2:24.38 | 107909 | 118746
11 | 26:23.22 | 1:41.20 | 118747 | 126341
12 | 28:04.42 | 2:16.32 | 126342 | 136573
13 | 30:20.74 | 5:03.61 | 136574 | 159359
14 | 35:24.60 | 2:14.03 | 159360 | 169412
15 | 37:38.63 | 4:49.06 | 169413 | 191093
16 | 42:27.69 | 0:46.73 | 191094 | 194616

Характеристики диапазона извлечения и сообщения об ошибках

Выбранный диапазон

Имя файла C:\Users\Rohai\Desktop\Всё!\Рипы\In Extremo – Hameln.wav

Пиковый уровень 97.7 %
Скорость извлечения 3.6 X
Качество диапазона 99.9 %
CRC теста 98F215A6
CRC копии 98F215A6
Копирование… OK

Ошибок не произошло

AccurateRip: сводка

Трек 1 : извлечено точно (доверие 5) [95BCB70A] (AR v2)
Трек 2 : извлечено точно (доверие 6) [1C11E080] (AR v2)
Трек 3 : извлечено точно (доверие 6) [5F9BEDAB] (AR v2)
Трек 4 : извлечено точно (доверие 6) [918AD9F9] (AR v2)
Трек 5 : извлечено точно (доверие 6) [8B95374D] (AR v2)
Трек 6 : извлечено точно (доверие 6) [B0F64006] (AR v2)
Трек 7 : извлечено точно (доверие 6) [75F57855] (AR v2)
Трек 8 : извлечено точно (доверие 6) [2F1F6358] (AR v2)
Трек 9 : извлечено точно (доверие 6) [DA41E156] (AR v2)
Трек 10 : извлечено точно (доверие 6) [790996D0] (AR v2)
Трек 11 : извлечено точно (доверие 6) [786F5ABD] (AR v2)
Трек 12 : извлечено точно (доверие 6) [CBB50D1B] (AR v2)
Трек 13 : извлечено точно (доверие 6) [0A3FA77F] (AR v2)
Трек 14 : извлечено точно (доверие 6) [346736BB] (AR v2)
Трек 15 : извлечено точно (доверие 6) [241FF546] (AR v2)
Трек 16 : извлечено точно (доверие 5) [98196C73] (AR v2)

Все треки извлечены точно

Конец отчёта

REM ACCURATERIPID 00192d33-012e47d2-cc0a2210
REM GENRE “Medieval Folk Metal”
REM DATE 1998
REM DISCID CC0A2210
PERFORMER “In Extremo”
TITLE “Hameln”
CATALOG 0718751501423
REM DISCNUMBER 1
REM TOTALDISCS 1
FILE “01 – Reth.m4a” WAVE
TRACK 01 AUDIO
TITLE “Reth”
PERFORMER “In Extremo”
INDEX 01 00:00:00
FILE “02 – Quant je suis mis au retour.m4a” WAVE
TRACK 02 AUDIO
TITLE “Quant je suis mis au retour”
PERFORMER “In Extremo”
INDEX 01 00:00:00
TRACK 03 AUDIO
TITLE “Stella Splendens”
PERFORMER “In Extremo”
INDEX 00 02:47:28
FILE “03 – Stella Splendens.m4a” WAVE
INDEX 01 00:00:00
TRACK 04 AUDIO
TITLE “Vor vollen Schüsseln”
PERFORMER “In Extremo”
INDEX 00 03:49:64
FILE “04 – Vor vollen Schüsseln.m4a” WAVE
INDEX 01 00:00:00
TRACK 05 AUDIO
TITLE “Traubentritt”
PERFORMER “In Extremo”
INDEX 00 03:35:05
FILE “05 – Traubentritt.m4a” WAVE
INDEX 01 00:00:00
TRACK 06 AUDIO
TITLE “Two Søstra / Harpa”
PERFORMER “In Extremo”
INDEX 00 03:51:31
FILE “06 – Two Søstra _ Harpa.m4a” WAVE
INDEX 01 00:00:00
TRACK 07 AUDIO
TITLE “Reth”
PERFORMER “In Extremo”
INDEX 00 02:39:61
FILE “07 – Reth.m4a” WAVE
INDEX 01 00:00:00
FILE “08 – Estampre.m4a” WAVE
TRACK 08 AUDIO
TITLE “Estampre”
PERFORMER “In Extremo”
INDEX 01 00:00:00
TRACK 09 AUDIO
TITLE “Dödet”
PERFORMER “In Extremo”
INDEX 00 01:37:55
FILE “09 – Dödet.m4a” WAVE
INDEX 01 00:00:00
TRACK 10 AUDIO
TITLE “‘französisch'”
PERFORMER “In Extremo”
INDEX 00 03:22:05
FILE “10 – _französisch_.m4a” WAVE
INDEX 01 00:00:00
TRACK 11 AUDIO
TITLE “Reth / Tierliebe”
PERFORMER “In Extremo”
INDEX 00 02:22:68
FILE “11 – Reth _ Tierliebe.m4a” WAVE
INDEX 01 00:00:00
FILE “12 – Wie kann ich das Herz meiner Liebsten gewinnen.m4a” WAVE
TRACK 12 AUDIO
TITLE “Wie kann ich das Herz meiner Liebsten gewinnen”
PERFORMER “In Extremo”
INDEX 01 00:00:00
TRACK 13 AUDIO
TITLE “Hameln”
PERFORMER “In Extremo”
INDEX 00 02:14:62
FILE “13 – Hameln.m4a” WAVE
INDEX 01 00:00:00
TRACK 14 AUDIO
TITLE “Merseburger Zaubersprüche”
PERFORMER “In Extremo”
INDEX 00 05:01:17
FILE “14 – Merseburger Zaubersprüche.m4a” WAVE
INDEX 01 00:00:00
TRACK 15 AUDIO
TITLE “Lyte”
PERFORMER “In Extremo”
INDEX 00 02:11:33
FILE “15 – Lyte.m4a” WAVE
INDEX 01 00:00:00
TRACK 16 AUDIO
TITLE “Bonus für Insider”
PERFORMER “In Extremo”
INDEX 00 02:49:36
FILE “16 – Bonus für Insider.m4a” WAVE
INDEX 01 00:00:00


Leave a Reply

Your email address will not be published. Required fields are marked *

This site uses Akismet to reduce spam. Learn how your comment data is processed.