In Extremo – Hameln 2006




No Cover available

Artist: In Extremo
Year: 2006
Genre: Rock
Notes: Discogs
Add. Notes:
Watch Songs on: YouTube
Cover incl.: Yes
Encoder: ALAC
Bitrate: ~800 kBit/s (44.1 kHz/16 Bit/s)
Log & Cue incl.: Yes
Size: 593,43 MB
Password: “slam” (without ” “)


All Downloads/Hosters are compatible

Download 1
KatFile.com
Turbobit.net
FileFactory.com
Rapidgator.net
Download 2
KatFile.com
Turbobit.net
FileFactory.com
Rapidgator.net

Tracklist:

1 - Retb - 1:29
2 - Quint Je Soi Mis Ou Retour - 2:51
3 - Stelle Splendens - 3:52
4 - Vor Vollen Schüsseln - 3:38
5 - Traubentritt - 3:56
6 - Two Søstra / Harpa - 2:42
7 - Retb 2 - 0:36
8 - Estampie - 1:42
9 - Dödet - 3:26
10 - "französisch" - 2:26
11 - Retb 3 - 1:43
12 - Wie Kann Ich Das Herz Meiner Liebsten Gewinnen - 
2:18
13 - Hameln - 5:05
14 - Merseburger Zaubersprüche - 2:16
15 - Lyte - 4:51
16 - Bonus Für Insider - 0:48
17 - Sine Ein Gulden Hahn - 1:36
18 - Ei Ri Sasun - 2:11

EAC-Log, CUE-Sheed & NFO:

Click to open spoiler
Exact Audio Copy V1.0 beta 3 from 29. August 2011

Отчёт EAC об извлечении, выполненном 30. ноября 2014, 22:10

In Extremo / Hameln 2006

Дисковод: Optiarc DVD RW AD-7200S Adapter: 1 ID: 0

Режим чтения : Достоверность
Использование точного потока : Да
Отключение кэша аудио : Да
Использование указателей C2 : Нет

Коррекция смещения при чтении : 48
Способность читать области Lead-in и Lead-out : Нет
Заполнение пропущенных сэмплов тишиной : Да
Удаление блоков с тишиной в начале и конце : Нет
При вычислениях CRC использовались нулевые сэмплы : Да
Интерфейс : Встроенный Win32-интерфейс для Win NT/2000

Выходной формат : Пользовательский кодировщик
Выбранный битрейт : 896 kBit/s
Качество : Высокий
Добавление ID3-тега : Нет
Утилита сжатия : D:\Program Files\EACPortable\App\EAC\FLAC\flac.exe
Дополнительные параметры : -6 -V -T “ARTIST=%artist%” -T “TITLE=%title%” -T “ALBUM=%albumtitle%” -T “DATE=%year%” -T “TRACKNUMBER=%tracknr%” -T “GENRE=%genre%” -T “COMMENT=%comment%” %hascover%–picture=”%coverfile%”%hascover% %source% -o %dest%

TOC извлечённого CD

Трек | Старт | Длительность | Начальный сектор | Конечный сектор
———————————————————————
1 | 0:00.00 | 1:31.70 | 0 | 6894
2 | 1:31.70 | 2:53.73 | 6895 | 19942
3 | 4:25.68 | 3:54.33 | 19943 | 37525
4 | 8:20.26 | 3:40.49 | 37526 | 54074
5 | 12:01.00 | 3:58.01 | 54075 | 71925
6 | 15:59.01 | 2:44.31 | 71926 | 84256
7 | 18:43.32 | 0:38.27 | 84257 | 87133
8 | 19:21.59 | 1:44.25 | 87134 | 94958
9 | 21:06.09 | 3:28.50 | 94959 | 110608
10 | 24:34.59 | 2:28.38 | 110609 | 121746
11 | 27:03.22 | 1:45.20 | 121747 | 129641
12 | 28:48.42 | 2:20.32 | 129642 | 140173
13 | 31:08.74 | 5:07.61 | 140174 | 163259
14 | 36:16.60 | 2:18.03 | 163260 | 173612
15 | 38:34.63 | 4:53.06 | 173613 | 195593
16 | 43:27.69 | 0:50.73 | 195594 | 199416
17 | 44:18.67 | 1:38.08 | 199417 | 206774
18 | 45:57.00 | 2:11.42 | 206775 | 216641

Характеристики диапазона извлечения и сообщения об ошибках

Выбранный диапазон

Имя файла C:\Users\Rohai\Desktop\Всё!\Рипы\In Extremo – Hameln 2006.wav

Пиковый уровень 100.0 %
Скорость извлечения 3.9 X
Качество диапазона 99.9 %
CRC теста 578CE962
CRC копии 578CE962
Копирование… OK

Ошибок не произошло

AccurateRip: сводка

Трек 1 : извлечено точно (доверие 13) [8D700402] (AR v2)
Трек 2 : извлечено точно (доверие 12) [ABF5DFB3] (AR v2)
Трек 3 : извлечено точно (доверие 12) [C9F3F737] (AR v2)
Трек 4 : извлечено точно (доверие 13) [D90DDAF7] (AR v2)
Трек 5 : извлечено точно (доверие 13) [CC6EFC4A] (AR v2)
Трек 6 : извлечено точно (доверие 12) [FEF42DD8] (AR v2)
Трек 7 : извлечено точно (доверие 13) [B5109EDB] (AR v2)
Трек 8 : извлечено точно (доверие 13) [79561B73] (AR v2)
Трек 9 : извлечено точно (доверие 13) [9C22FA0E] (AR v2)
Трек 10 : извлечено точно (доверие 13) [8DBDA2D4] (AR v2)
Трек 11 : извлечено точно (доверие 13) [F0148A5E] (AR v2)
Трек 12 : извлечено точно (доверие 13) [EF81CC33] (AR v2)
Трек 13 : извлечено точно (доверие 13) [B3D4E293] (AR v2)
Трек 14 : извлечено точно (доверие 13) [A3CF6D3C] (AR v2)
Трек 15 : извлечено точно (доверие 13) [48AB2D9F] (AR v2)
Трек 16 : извлечено точно (доверие 12) [3E404AEA] (AR v2)
Трек 17 : извлечено точно (доверие 13) [5080B6A1] (AR v2)
Трек 18 : извлечено точно (доверие 13) [383C7A7D] (AR v2)

Все треки извлечены точно

Конец отчёта

REM ACCURATERIPID 0020428c-01ad5a16-f40b4812
REM GENRE “Medieval Folk Metal”
REM DATE 1998
REM DISCID F40B4812
PERFORMER “In Extremo”
TITLE “Hameln 2006”
CATALOG 4015698618129
REM DISCNUMBER 1
REM TOTALDISCS 1
FILE “01 – Reth.m4a” WAVE
TRACK 01 AUDIO
TITLE “Reth”
PERFORMER “In Extremo”
INDEX 01 00:00:00
TRACK 02 AUDIO
TITLE “Quant je suis mis au retour”
PERFORMER “In Extremo”
INDEX 00 01:29:70
FILE “02 – Quant je suis mis au retour.m4a” WAVE
INDEX 01 00:00:00
TRACK 03 AUDIO
TITLE “Stella Splendens”
PERFORMER “In Extremo”
INDEX 00 02:51:73
FILE “03 – Stella Splendens.m4a” WAVE
INDEX 01 00:00:00
TRACK 04 AUDIO
TITLE “Vor vollen Schüsseln”
PERFORMER “In Extremo”
INDEX 00 03:52:33
FILE “04 – Vor vollen Schüsseln.m4a” WAVE
INDEX 01 00:00:00
TRACK 05 AUDIO
TITLE “Traubentritt”
PERFORMER “In Extremo”
INDEX 00 03:38:49
FILE “05 – Traubentritt.m4a” WAVE
INDEX 01 00:00:00
TRACK 06 AUDIO
TITLE “Two Søstra / Harpa”
PERFORMER “In Extremo”
INDEX 00 03:56:01
FILE “06 – Two Søstra _ Harpa.m4a” WAVE
INDEX 01 00:00:00
TRACK 07 AUDIO
TITLE “Reth”
PERFORMER “In Extremo”
INDEX 00 02:42:31
FILE “07 – Reth.m4a” WAVE
INDEX 01 00:00:00
TRACK 08 AUDIO
TITLE “Estampie”
PERFORMER “In Extremo”
INDEX 00 00:36:27
FILE “08 – Estampie.m4a” WAVE
INDEX 01 00:00:00
TRACK 09 AUDIO
TITLE “Dödet”
PERFORMER “In Extremo”
INDEX 00 01:42:25
FILE “09 – Dödet.m4a” WAVE
INDEX 01 00:00:00
TRACK 10 AUDIO
TITLE “‘französisch'”
PERFORMER “In Extremo”
INDEX 00 03:26:50
FILE “10 – _französisch_.m4a” WAVE
INDEX 01 00:00:00
TRACK 11 AUDIO
TITLE “Reth / Tierliebe”
PERFORMER “In Extremo”
INDEX 00 02:26:38
FILE “11 – Reth _ Tierliebe.m4a” WAVE
INDEX 01 00:00:00
TRACK 12 AUDIO
TITLE “Wie kann ich das Herz meiner Liebsten gewinnen”
PERFORMER “In Extremo”
INDEX 00 01:43:20
FILE “12 – Wie kann ich das Herz meiner Liebsten gewinnen.m4a” WAVE
INDEX 01 00:00:00
TRACK 13 AUDIO
TITLE “Hameln”
PERFORMER “In Extremo”
INDEX 00 02:18:32
FILE “13 – Hameln.m4a” WAVE
INDEX 01 00:00:00
TRACK 14 AUDIO
TITLE “Merseburger Zaubersprüche”
PERFORMER “In Extremo”
INDEX 00 05:05:61
FILE “14 – Merseburger Zaubersprüche.m4a” WAVE
INDEX 01 00:00:00
TRACK 15 AUDIO
TITLE “Lyte”
PERFORMER “In Extremo”
INDEX 00 02:16:03
FILE “15 – Lyte.m4a” WAVE
INDEX 01 00:00:00
TRACK 16 AUDIO
TITLE “Bonus für Insider”
PERFORMER “In Extremo”
INDEX 00 04:51:06
FILE “16 – Bonus für Insider.m4a” WAVE
INDEX 01 00:00:00
TRACK 17 AUDIO
TITLE “Sinc ein gulden Hahn”
PERFORMER “In Extremo”
INDEX 00 00:48:73
FILE “17 – Sinc ein gulden Hahn.m4a” WAVE
INDEX 01 00:00:00
TRACK 18 AUDIO
TITLE “Ei Ri Sasun”
PERFORMER “In Extremo”
INDEX 00 01:36:08
FILE “18 – Ei Ri Sasun.m4a” WAVE
INDEX 01 00:00:00


Leave a Reply

Your email address will not be published. Required fields are marked *

This site uses Akismet to reduce spam. Learn how your comment data is processed.