In Extremo – Gold




Artist: In Extremo
Year: 1997
Genre: Rock
Notes: Discogs
Add. Notes:
Cover incl.: Yes
Encoder: ALAC
Bitrate: ~900 kBit/s (44.1 kHz/16 Bit/s)
Log & Cue incl.: Yes
Size: 287,01 MB
Password: “slam” (without ” “)


All Downloads/Hosters are compatible

Download 1
Turbobit.net
Rapidgator.net
UploadEver.com
KatFile.com
UsersDrive.com
Download 2
Turbobit.net
Rapidgator.net
UploadEver.com
KatFile.com
UsersDrive.com
Download 3
Turbobit.net
Rapidgator.net
UploadEver.com
KatFile.com
UsersDrive.com

Tracklist:

1. Intro - Ecce Rex Bandary 8:00
2. Pavane 2:50
3. Schaf Öda Nix Schaf 3:12
4. Tourdion 4:29
5. Neva Ceng I Harbe 3:00
6. Für Bo 2:34
7. Quant Je Sui Mis Au Retour 2:53
8. Neunerle 3:03
9. Lulap / Como Poden 5:37
10. Villeman Og Magnhild 3:38

EAC-Log, CUE-Sheed & NFO:

Click to open spoiler
Exact Audio Copy V0.99 prebeta 5 from 4. May 2009

EAC extraction logfile from 23. June 2010, 0:31

In Extremo / Gold

Used drive : Optiarc DVD RW AD-7170A Adapter: 1 ID: 0

Read mode : Secure
Utilize accurate stream : Yes
Defeat audio cache : Yes
Make use of C2 pointers : No

Read offset correction : 48
Overread into Lead-In and Lead-Out : No
Fill up missing offset samples with silence : Yes
Delete leading and trailing silent blocks : No
Null samples used in CRC calculations : Yes
Used interface : Native Win32 interface for Win NT & 2000
Gap handling : Appended to previous track

Used output format : Internal WAV Routines
Sample format : 44.100 Hz; 16 Bit; Stereo

TOC of the extracted CD

Track | Start | Length | Start sector | End sector
———————————————————
1 | 0:00.01 | 8:00.02 | 1 | 36002
2 | 8:00.03 | 2:48.40 | 36003 | 48642
3 | 10:48.43 | 3:11.27 | 48643 | 62994
4 | 13:59.70 | 4:29.20 | 62995 | 83189
5 | 18:29.15 | 2:59.47 | 83190 | 96661
6 | 21:28.62 | 2:34.16 | 96662 | 108227
7 | 24:03.03 | 2:52.12 | 108228 | 121139
8 | 26:55.15 | 3:03.29 | 121140 | 134893
9 | 29:58.44 | 5:34.13 | 134894 | 159956
10 | 35:32.57 | 3:37.23 | 159957 | 176254

Track 1

Filename D:\In Extremo – Gold 1997\01. In Extremo – Intro – Ecce Rex Bandary.wav

Pre-gap length 0:00:02.01

Peak level 100.0 %
Track quality 100.0 %
Test CRC 942C971E
Copy CRC 942C971E
Track not present in AccurateRip database
Copy OK

Track 2

Filename D:\In Extremo – Gold 1997\02. In Extremo – Pavane.wav

Peak level 100.0 %
Track quality 100.0 %
Test CRC C55F93B2
Copy CRC C55F93B2
Track not present in AccurateRip database
Copy OK

Track 3

Filename D:\In Extremo – Gold 1997\03. In Extremo – Schaf Oda Nix Schaf.wav

Peak level 100.0 %
Track quality 100.0 %
Test CRC 4BF3AE06
Copy CRC 4BF3AE06
Track not present in AccurateRip database
Copy OK

Track 4

Filename D:\In Extremo – Gold 1997\04. In Extremo – Tourdion.wav

Peak level 100.0 %
Track quality 100.0 %
Test CRC BD8AAE00
Copy CRC BD8AAE00
Track not present in AccurateRip database
Copy OK

Track 5

Filename D:\In Extremo – Gold 1997\05. In Extremo – Neva Ceng I Harbe.wav

Peak level 100.0 %
Track quality 99.9 %
Test CRC 6B4F9032
Copy CRC 6B4F9032
Track not present in AccurateRip database
Copy OK

Track 6

Filename D:\In Extremo – Gold 1997\06. In Extremo – Fur Bo.wav

Peak level 100.0 %
Track quality 100.0 %
Test CRC 0E254C3F
Copy CRC 0E254C3F
Track not present in AccurateRip database
Copy OK

Track 7

Filename D:\In Extremo – Gold 1997\07. In Extremo – Quant Je Sui Mis Au Retour.wav

Peak level 100.0 %
Track quality 100.0 %
Test CRC 860E24C3
Copy CRC 860E24C3
Track not present in AccurateRip database
Copy OK

Track 8

Filename D:\In Extremo – Gold 1997\08. In Extremo – Neunerle.wav

Peak level 100.0 %
Track quality 100.0 %
Test CRC B6AEFEA8
Copy CRC B6AEFEA8
Track not present in AccurateRip database
Copy OK

Track 9

Filename D:\In Extremo – Gold 1997\09. In Extremo – Lulap – Como Poden.wav

Peak level 100.0 %
Track quality 100.0 %
Test CRC F3B7CDFE
Copy CRC F3B7CDFE
Track not present in AccurateRip database
Copy OK

Track 10

Filename D:\In Extremo – Gold 1997\10. In Extremo – Villeman Og Magnhild.wav

Peak level 100.0 %
Track quality 100.0 %
Test CRC ACE3E539
Copy CRC ACE3E539
Track not present in AccurateRip database
Copy OK

None of the tracks are present in the AccurateRip database

No errors occurred

End of status report

REM GENRE Rock
REM DATE 1997
REM DISCID 68092E0A
REM COMMENT “ExactAudioCopy v0.99pb5”
PERFORMER “In Extremo”
TITLE “Gold”
FILE “01. In Extremo – Intro – Ecce Rex Bandary.wav” WAVE
TRACK 01 AUDIO
TITLE “Intro – Ecce Rex Bandary”
PERFORMER “In Extremo”
PREGAP 00:00:01
INDEX 01 00:00:00
FILE “02. In Extremo – Pavane.wav” WAVE
TRACK 02 AUDIO
TITLE “Pavane”
PERFORMER “In Extremo”
INDEX 01 00:00:00
FILE “03. In Extremo – Schaf Oda Nix Schaf.wav” WAVE
TRACK 03 AUDIO
TITLE “Schaf Oda Nix Schaf”
PERFORMER “In Extremo”
INDEX 01 00:00:00
FILE “04. In Extremo – Tourdion.wav” WAVE
TRACK 04 AUDIO
TITLE “Tourdion”
PERFORMER “In Extremo”
INDEX 01 00:00:00
FILE “05. In Extremo – Neva Ceng I Harbe.wav” WAVE
TRACK 05 AUDIO
TITLE “Neva Ceng I Harbe”
PERFORMER “In Extremo”
INDEX 01 00:00:00
FILE “06. In Extremo – Fur Bo.wav” WAVE
TRACK 06 AUDIO
TITLE “Fur Bo”
PERFORMER “In Extremo”
INDEX 01 00:00:00
FILE “07. In Extremo – Quant Je Sui Mis Au Retour.wav” WAVE
TRACK 07 AUDIO
TITLE “Quant Je Sui Mis Au Retour”
PERFORMER “In Extremo”
INDEX 01 00:00:00
FILE “08. In Extremo – Neunerle.wav” WAVE
TRACK 08 AUDIO
TITLE “Neunerle”
PERFORMER “In Extremo”
INDEX 01 00:00:00
FILE “09. In Extremo – Lulap – Como Poden.wav” WAVE
TRACK 09 AUDIO
TITLE “Lulap – Como Poden”
PERFORMER “In Extremo”
INDEX 01 00:00:00
FILE “10. In Extremo – Villeman Og Magnhild.wav” WAVE
TRACK 10 AUDIO
TITLE “Villeman Og Magnhild”
PERFORMER “In Extremo”
INDEX 01 00:00:00

Leave a Reply

Your email address will not be published. Required fields are marked *

This site uses Akismet to reduce spam. Learn how your comment data is processed.