In Extremo – 40 Wahre Lieder – the best of




No Cover available


Artist: In Extremo
Year: 2017
Genre: Rock
Notes: Discogs
Add. Notes:
Watch Songs on: YouTube
Cover incl.: Yes
Encoder: FLAC
Bitrate: ~1000 kBit/s (44.1 kHz/16 Bit/s)
Log & Cue incl.: Yes/Yes
Size: 1318 MB
Password: “slam” (without ” “)


All Downloads/Hosters are compatible

Download 1
KatFile.com
Turbobit.net
Rapidgator.net
FileFactory.com
Download 2
KatFile.com
Turbobit.net
Rapidgator.net
FileFactory.com

Tracklist:

CD 1
1 Neunerle 3:00
2 Villeman Og Magnhild 3:44
3 Hiemali Tempore 4:15
4 Ai Vis Lo Lop 4:01
5 Spielmannsfluch 3:43
6 Herr Mannelig 4:56
7 Merseburger Zaubersprüche II 4:23
8 Vollmond 4:00
9 Die Gier 3:47
10 Omnia Sol Temperat 4:13
11 Wind 4:25
12 Küss Mich 4:09
13 Erdbeermund 4:06
14 Davert-Tanz 3:09
15 Albtraum 4:03
16 Rasend Herz 4:05
17 Horizont 3:38
18 Liam 3:49
19 Singapur 3:53
20 Nur Ihr Allein 3:53

CD 2
1 Sängerkrieg 3:55
2 Frei Zu Sein 3:33
3 Flaschenpost 4:01
4 Sieben Köche 2:55
5 En Esta Noche 3:58
6 Zigeunerskat 4:28
7 Viva La Vida 3:36
8 Siehst Du Das Licht 4:22
9 Unsichtbar 3:48
10 Sterneneisen 3:11
11 Feuertaufe 3:27
12 Alles Schon Gesehen 3:29
13 Himmel Und Hölle 3:55
14 Gaukler 3:53
15 Belladonna 4:00
16 Loreley 4:07
17 Störtebeker 3:35
18 Quid Pro Quo 3:04
19 Lieb Vaterland, Magst Ruhig Sein 5:15
20 Sternhagelvoll 4:04

EAC-Log, CUE-Sheed & NFO:

Click to open spoiler
Exact Audio Copy V1.0 beta 3 from 29. August 2011

EAC extraction logfile from 10. October 2018, 22:53

In Extremo / 40 Wahre Lieder – The Best Of Extremo (2017) (CD 1)

Used drive : PIONEER BD-RW BDR-205 Adapter: 5 ID: 2

Read mode : Secure
Utilize accurate stream : Yes
Defeat audio cache : Yes
Make use of C2 pointers : No

Read offset correction : 667
Overread into Lead-In and Lead-Out : No
Fill up missing offset samples with silence : Yes
Delete leading and trailing silent blocks : No
Null samples used in CRC calculations : Yes
Used interface : Native Win32 interface for Win NT & 2000
Gap handling : Appended to previous track

Used output format : User Defined Encoder
Selected bitrate : 128 kBit/s
Quality : High
Add ID3 tag : No
Command line compressor : C:\Program Files (x86)\Exact Audio Copy\Flac\flac.exe
Additional command line options : -8 -V -T “ARTIST=%artist%” -T “TITLE=%title%” -T “ALBUM=%albumtitle%” -T “DATE=%year%” -T “TRACKNUMBER=%tracknr%” -T “GENRE=%genre%” -T “COMMENT=%comment%” -T “BAND=%albuminterpret%” -T “ALBUMARTIST=%albuminterpret%” -T “COMPOSER=%composer%” %haslyrics%–tag-from-file=LYRICS=”%lyricsfile%”%haslyrics% -T “DISCNUMBER=%cdnumber%” -T “TOTALDISCS=%totalcds%” -T “TOTALTRACKS=%numtracks%” %hascover%–picture=”%coverfile%”%hascover% %source% -o %dest%

TOC of the extracted CD

Track | Start | Length | Start sector | End sector
———————————————————
1 | 0:00.00 | 2:59.52 | 0 | 13476
2 | 2:59.52 | 3:43.72 | 13477 | 30273
3 | 6:43.49 | 4:15.01 | 30274 | 49399
4 | 10:58.50 | 4:00.42 | 49400 | 67441
5 | 14:59.17 | 3:42.52 | 67442 | 84143
6 | 18:41.69 | 4:55.68 | 84144 | 106336
7 | 23:37.62 | 4:22.54 | 106337 | 126040
8 | 28:00.41 | 3:59.42 | 126041 | 144007
9 | 32:00.08 | 3:46.58 | 144008 | 161015
10 | 35:46.66 | 4:12.38 | 161016 | 179953
11 | 39:59.29 | 4:24.67 | 179954 | 199820
12 | 44:24.21 | 4:08.70 | 199821 | 218490
13 | 48:33.16 | 4:05.50 | 218491 | 236915
14 | 52:38.66 | 3:08.50 | 236916 | 251065
15 | 55:47.41 | 4:02.65 | 251066 | 269280
16 | 59:50.31 | 4:05.32 | 269281 | 287687
17 | 63:55.63 | 3:37.60 | 287688 | 304022
18 | 67:33.48 | 3:48.56 | 304023 | 321178
19 | 71:22.29 | 3:53.16 | 321179 | 338669
20 | 75:15.45 | 3:53.23 | 338670 | 356167

Track 1

Filename M:\In Extremo – 40 wahre Lieder (Limited Loreley – Fanbox) [2CD] (2017)\In Extremo – 40 wahre Lieder (CD1)\01 In Extremo -Neunerle.wav

Pre-gap length 0:00:02.00

Peak level 95.2 %
Extraction speed 4.6 X
Track quality 100.0 %
Test CRC 2C077944
Copy CRC 2C077944
Accurately ripped (confidence 3) [26E42648] (AR v2)
Copy OK

Track 2

Filename M:\In Extremo – 40 wahre Lieder (Limited Loreley – Fanbox) [2CD] (2017)\In Extremo – 40 wahre Lieder (CD1)\02 In Extremo -Villeman Og Magnhild.wav

Peak level 98.8 %
Extraction speed 5.2 X
Track quality 100.0 %
Test CRC 2168B90C
Copy CRC 2168B90C
Accurately ripped (confidence 4) [D74DC949] (AR v2)
Copy OK

Track 3

Filename M:\In Extremo – 40 wahre Lieder (Limited Loreley – Fanbox) [2CD] (2017)\In Extremo – 40 wahre Lieder (CD1)\03 In Extremo -Hiemali Tempore.wav

Peak level 98.8 %
Extraction speed 5.7 X
Track quality 100.0 %
Test CRC 6C0EE029
Copy CRC 6C0EE029
Accurately ripped (confidence 4) [CDF47F6B] (AR v2)
Copy OK

Track 4

Filename M:\In Extremo – 40 wahre Lieder (Limited Loreley – Fanbox) [2CD] (2017)\In Extremo – 40 wahre Lieder (CD1)\04 In Extremo -Ai Vis Lo Lop.wav

Peak level 98.8 %
Extraction speed 6.0 X
Track quality 100.0 %
Test CRC 28311654
Copy CRC 28311654
Accurately ripped (confidence 4) [47F80E29] (AR v2)
Copy OK

Track 5

Filename M:\In Extremo – 40 wahre Lieder (Limited Loreley – Fanbox) [2CD] (2017)\In Extremo – 40 wahre Lieder (CD1)\05 In Extremo -Spielmannsfluch.wav

Peak level 98.8 %
Extraction speed 6.2 X
Track quality 100.0 %
Test CRC 33AE7081
Copy CRC 33AE7081
Accurately ripped (confidence 4) [BCD22D0B] (AR v2)
Copy OK

Track 6

Filename M:\In Extremo – 40 wahre Lieder (Limited Loreley – Fanbox) [2CD] (2017)\In Extremo – 40 wahre Lieder (CD1)\06 In Extremo -Herr Mannelig.wav

Peak level 98.8 %
Extraction speed 6.8 X
Track quality 100.0 %
Test CRC 0D959FE0
Copy CRC 0D959FE0
Accurately ripped (confidence 4) [D1E207A8] (AR v2)
Copy OK

Track 7

Filename M:\In Extremo – 40 wahre Lieder (Limited Loreley – Fanbox) [2CD] (2017)\In Extremo – 40 wahre Lieder (CD1)\07 In Extremo -Merseburger Zaubersprüche II.wav

Peak level 98.8 %
Extraction speed 7.0 X
Track quality 100.0 %
Test CRC 36372C20
Copy CRC 36372C20
Accurately ripped (confidence 3) [6B165788] (AR v2)
Copy OK

Track 8

Filename M:\In Extremo – 40 wahre Lieder (Limited Loreley – Fanbox) [2CD] (2017)\In Extremo – 40 wahre Lieder (CD1)\08 In Extremo -Vollmond.wav

Peak level 98.8 %
Extraction speed 7.2 X
Track quality 100.0 %
Test CRC 647B5303
Copy CRC 647B5303
Accurately ripped (confidence 4) [4B7A27C0] (AR v2)
Copy OK

Track 9

Filename M:\In Extremo – 40 wahre Lieder (Limited Loreley – Fanbox) [2CD] (2017)\In Extremo – 40 wahre Lieder (CD1)\09 In Extremo -Die Gier.wav

Peak level 98.8 %
Extraction speed 7.3 X
Track quality 100.0 %
Test CRC ECE0225F
Copy CRC ECE0225F
Accurately ripped (confidence 3) [C4D5B102] (AR v2)
Copy OK

Track 10

Filename M:\In Extremo – 40 wahre Lieder (Limited Loreley – Fanbox) [2CD] (2017)\In Extremo – 40 wahre Lieder (CD1)\10 In Extremo -Omnia Sol Temperat.wav

Peak level 98.8 %
Extraction speed 7.8 X
Track quality 100.0 %
Test CRC 49A3834B
Copy CRC 49A3834B
Accurately ripped (confidence 3) [6CE0E7DA] (AR v2)
Copy OK

Track 11

Filename M:\In Extremo – 40 wahre Lieder (Limited Loreley – Fanbox) [2CD] (2017)\In Extremo – 40 wahre Lieder (CD1)\11 In Extremo -Wind.wav

Peak level 98.8 %
Extraction speed 8.0 X
Track quality 100.0 %
Test CRC 567CB18B
Copy CRC 567CB18B
Accurately ripped (confidence 3) [002329DF] (AR v2)
Copy OK

Track 12

Filename M:\In Extremo – 40 wahre Lieder (Limited Loreley – Fanbox) [2CD] (2017)\In Extremo – 40 wahre Lieder (CD1)\12 In Extremo -Küss mich.wav

Peak level 97.1 %
Extraction speed 8.2 X
Track quality 100.0 %
Test CRC 311DF2C5
Copy CRC 311DF2C5
Accurately ripped (confidence 4) [BB0A583D] (AR v2)
Copy OK

Track 13

Filename M:\In Extremo – 40 wahre Lieder (Limited Loreley – Fanbox) [2CD] (2017)\In Extremo – 40 wahre Lieder (CD1)\13 In Extremo -Erdbeermund.wav

Peak level 97.1 %
Extraction speed 7.4 X
Track quality 99.9 %
Test CRC A4D8469E
Copy CRC A4D8469E
Accurately ripped (confidence 3) [39D99586] (AR v2)
Copy OK

Track 14

Filename M:\In Extremo – 40 wahre Lieder (Limited Loreley – Fanbox) [2CD] (2017)\In Extremo – 40 wahre Lieder (CD1)\14 In Extremo -Davert-Tanz.wav

Peak level 97.0 %
Extraction speed 8.2 X
Track quality 100.0 %
Test CRC 78747EB4
Copy CRC 78747EB4
Accurately ripped (confidence 3) [685FDDCB] (AR v2)
Copy OK

Track 15

Filename M:\In Extremo – 40 wahre Lieder (Limited Loreley – Fanbox) [2CD] (2017)\In Extremo – 40 wahre Lieder (CD1)\15 In Extremo -Albtraum.wav

Peak level 97.2 %
Extraction speed 8.7 X
Track quality 100.0 %
Test CRC 6EDD4F92
Copy CRC 6EDD4F92
Accurately ripped (confidence 3) [D94D5E24] (AR v2)
Copy OK

Track 16

Filename M:\In Extremo – 40 wahre Lieder (Limited Loreley – Fanbox) [2CD] (2017)\In Extremo – 40 wahre Lieder (CD1)\16 In Extremo -Rasend Herz.wav

Peak level 98.8 %
Extraction speed 8.9 X
Track quality 100.0 %
Test CRC 08B2315C
Copy CRC 08B2315C
Accurately ripped (confidence 3) [8F9729D8] (AR v2)
Copy OK

Track 17

Filename M:\In Extremo – 40 wahre Lieder (Limited Loreley – Fanbox) [2CD] (2017)\In Extremo – 40 wahre Lieder (CD1)\17 In Extremo -Horizont.wav

Peak level 98.8 %
Extraction speed 7.7 X
Track quality 99.9 %
Test CRC 6B67AA7D
Copy CRC 6B67AA7D
Accurately ripped (confidence 4) [9AFEA9DB] (AR v2)
Copy OK

Track 18

Filename M:\In Extremo – 40 wahre Lieder (Limited Loreley – Fanbox) [2CD] (2017)\In Extremo – 40 wahre Lieder (CD1)\18 In Extremo feat. Rea Garvey -Liam.wav

Peak level 98.8 %
Extraction speed 7.9 X
Track quality 99.9 %
Test CRC 034CA4E6
Copy CRC 034CA4E6
Accurately ripped (confidence 3) [AF560C03] (AR v2)
Copy OK

Track 19

Filename M:\In Extremo – 40 wahre Lieder (Limited Loreley – Fanbox) [2CD] (2017)\In Extremo – 40 wahre Lieder (CD1)\19 In Extremo -Singapur.wav

Peak level 98.9 %
Extraction speed 9.3 X
Track quality 100.0 %
Test CRC 5F432098
Copy CRC 5F432098
Accurately ripped (confidence 3) [947544DB] (AR v2)
Copy OK

Track 20

Filename M:\In Extremo – 40 wahre Lieder (Limited Loreley – Fanbox) [2CD] (2017)\In Extremo – 40 wahre Lieder (CD1)\20 In Extremo -Nur ihr allein.wav

Peak level 98.8 %
Extraction speed 9.5 X
Track quality 100.0 %
Test CRC B8A194C7
Copy CRC B8A194C7
Accurately ripped (confidence 4) [02655DFA] (AR v2)
Copy OK

All tracks accurately ripped

No errors occurred

End of status report

==== Log checksum CA321E63C58A81303831AA6F6FB2CBBC6C7B1CA723818AFE2A7E94BE3C4542C6 ====

Exact Audio Copy V1.0 beta 3 from 29. August 2011

EAC extraction logfile from 11. October 2018, 0:01

In Extremo / 40 Wahre Lieder – The Best Of Extremo (2017) (CD 2)

Used drive : PIONEER BD-RW BDR-205 Adapter: 5 ID: 2

Read mode : Secure
Utilize accurate stream : Yes
Defeat audio cache : Yes
Make use of C2 pointers : No

Read offset correction : 667
Overread into Lead-In and Lead-Out : No
Fill up missing offset samples with silence : Yes
Delete leading and trailing silent blocks : No
Null samples used in CRC calculations : Yes
Used interface : Native Win32 interface for Win NT & 2000
Gap handling : Appended to previous track

Used output format : User Defined Encoder
Selected bitrate : 128 kBit/s
Quality : High
Add ID3 tag : No
Command line compressor : C:\Program Files (x86)\Exact Audio Copy\Flac\flac.exe
Additional command line options : -8 -V -T “ARTIST=%artist%” -T “TITLE=%title%” -T “ALBUM=%albumtitle%” -T “DATE=%year%” -T “TRACKNUMBER=%tracknr%” -T “GENRE=%genre%” -T “COMMENT=%comment%” -T “BAND=%albuminterpret%” -T “ALBUMARTIST=%albuminterpret%” -T “COMPOSER=%composer%” %haslyrics%–tag-from-file=LYRICS=”%lyricsfile%”%haslyrics% -T “DISCNUMBER=%cdnumber%” -T “TOTALDISCS=%totalcds%” -T “TOTALTRACKS=%numtracks%” %hascover%–picture=”%coverfile%”%hascover% %source% -o %dest%

TOC of the extracted CD

Track | Start | Length | Start sector | End sector
———————————————————
1 | 0:00.00 | 3:54.51 | 0 | 17600
2 | 3:54.51 | 3:32.38 | 17601 | 33538
3 | 7:27.14 | 4:01.01 | 33539 | 51614
4 | 11:28.15 | 2:54.74 | 51615 | 64738
5 | 14:23.14 | 3:58.13 | 64739 | 82601
6 | 18:21.27 | 4:28.18 | 82602 | 102719
7 | 22:49.45 | 3:35.65 | 102720 | 118909
8 | 26:25.35 | 4:22.32 | 118910 | 138591
9 | 30:47.67 | 3:48.34 | 138592 | 155725
10 | 34:36.26 | 3:11.02 | 155726 | 170052
11 | 37:47.28 | 3:27.09 | 170053 | 185586
12 | 41:14.37 | 3:28.71 | 185587 | 201257
13 | 44:43.33 | 3:55.16 | 201258 | 218898
14 | 48:38.49 | 3:52.39 | 218899 | 236337
15 | 52:31.13 | 4:00.02 | 236338 | 254339
16 | 56:31.15 | 4:06.65 | 254340 | 272854
17 | 60:38.05 | 3:35.30 | 272855 | 289009
18 | 64:13.35 | 3:03.47 | 289010 | 302781
19 | 67:17.07 | 5:15.23 | 302782 | 326429
20 | 72:32.30 | 4:03.41 | 326430 | 344695

Track 1

Filename M:\In Extremo – 40 wahre Lieder (Limited Loreley – Fanbox) [2CD] (2017)\In Extremo – 40 wahre Lieder (CD2)\01 In Extremo -Sängerkrieg.wav

Pre-gap length 0:00:02.00

Peak level 97.1 %
Extraction speed 4.3 X
Track quality 99.9 %
Test CRC B7C8B111
Copy CRC B7C8B111
Accurately ripped (confidence 3) [7BC6D697] (AR v2)
Copy OK

Track 2

Filename M:\In Extremo – 40 wahre Lieder (Limited Loreley – Fanbox) [2CD] (2017)\In Extremo – 40 wahre Lieder (CD2)\02 In Extremo -Frei zu sein.wav

Peak level 97.1 %
Extraction speed 5.3 X
Track quality 100.0 %
Test CRC EA25C2D3
Copy CRC EA25C2D3
Accurately ripped (confidence 3) [B29B3F31] (AR v2)
Copy OK

Track 3

Filename M:\In Extremo – 40 wahre Lieder (Limited Loreley – Fanbox) [2CD] (2017)\In Extremo – 40 wahre Lieder (CD2)\03 In Extremo -Flaschenpost.wav

Peak level 97.1 %
Extraction speed 5.1 X
Track quality 99.9 %
Test CRC 03FD67E1
Copy CRC 03FD67E1
Accurately ripped (confidence 3) [E051816A] (AR v2)
Copy OK

Track 4

Filename M:\In Extremo – 40 wahre Lieder (Limited Loreley – Fanbox) [2CD] (2017)\In Extremo – 40 wahre Lieder (CD2)\04 In Extremo -Sieben Köche.wav

Peak level 97.1 %
Extraction speed 5.6 X
Track quality 100.0 %
Test CRC D3DC9832
Copy CRC D3DC9832
Accurately ripped (confidence 3) [9BF3F7A5] (AR v2)
Copy OK

Track 5

Filename M:\In Extremo – 40 wahre Lieder (Limited Loreley – Fanbox) [2CD] (2017)\In Extremo – 40 wahre Lieder (CD2)\05 In Extremo -En Esta Noche.wav

Peak level 97.1 %
Extraction speed 6.3 X
Track quality 100.0 %
Test CRC 238A7D83
Copy CRC 238A7D83
Accurately ripped (confidence 3) [CEA42917] (AR v2)
Copy OK

Track 6

Filename M:\In Extremo – 40 wahre Lieder (Limited Loreley – Fanbox) [2CD] (2017)\In Extremo – 40 wahre Lieder (CD2)\06 In Extremo -Zigeunerskat.wav

Peak level 97.1 %
Extraction speed 6.0 X
Track quality 99.9 %
Test CRC 3435897A
Copy CRC 3435897A
Accurately ripped (confidence 3) [6120F1BE] (AR v2)
Copy OK

Track 7

Filename M:\In Extremo – 40 wahre Lieder (Limited Loreley – Fanbox) [2CD] (2017)\In Extremo – 40 wahre Lieder (CD2)\07 In Extremo -Viva La Vida.wav

Peak level 97.1 %
Extraction speed 6.7 X
Track quality 100.0 %
Test CRC 5E20E1D1
Copy CRC 5E20E1D1
Accurately ripped (confidence 3) [9D1DA8E0] (AR v2)
Copy OK

Track 8

Filename M:\In Extremo – 40 wahre Lieder (Limited Loreley – Fanbox) [2CD] (2017)\In Extremo – 40 wahre Lieder (CD2)\08 In Extremo -Siehst du das Licht.wav

Peak level 97.1 %
Extraction speed 7.3 X
Track quality 100.0 %
Test CRC AE208BFA
Copy CRC AE208BFA
Accurately ripped (confidence 3) [388F3C93] (AR v2)
Copy OK

Track 9

Filename M:\In Extremo – 40 wahre Lieder (Limited Loreley – Fanbox) [2CD] (2017)\In Extremo – 40 wahre Lieder (CD2)\09 In Extremo feat. Mille Petrozza -Unsichtbar.wav

Peak level 97.1 %
Extraction speed 7.4 X
Track quality 100.0 %
Test CRC 30B39F1E
Copy CRC 30B39F1E
Accurately ripped (confidence 3) [7DEA7A0E] (AR v2)
Copy OK

Track 10

Filename M:\In Extremo – 40 wahre Lieder (Limited Loreley – Fanbox) [2CD] (2017)\In Extremo – 40 wahre Lieder (CD2)\10 In Extremo -Sterneneisen.wav

Peak level 97.1 %
Extraction speed 7.4 X
Track quality 100.0 %
Test CRC C34C56FA
Copy CRC C34C56FA
Accurately ripped (confidence 3) [9A20F60B] (AR v2)
Copy OK

Track 11

Filename M:\In Extremo – 40 wahre Lieder (Limited Loreley – Fanbox) [2CD] (2017)\In Extremo – 40 wahre Lieder (CD2)\11 In Extremo -Feuertaufe.wav

Peak level 97.1 %
Extraction speed 6.6 X
Track quality 99.9 %
Test CRC 1DB9C0CF
Copy CRC 1DB9C0CF
Accurately ripped (confidence 3) [284F1D7F] (AR v2)
Copy OK

Track 12

Filename M:\In Extremo – 40 wahre Lieder (Limited Loreley – Fanbox) [2CD] (2017)\In Extremo – 40 wahre Lieder (CD2)\12 In Extremo -Alles schon gesehen.wav

Peak level 97.1 %
Extraction speed 7.8 X
Track quality 100.0 %
Test CRC 5FB3051B
Copy CRC 5FB3051B
Accurately ripped (confidence 3) [BBFAE185] (AR v2)
Copy OK

Track 13

Filename M:\In Extremo – 40 wahre Lieder (Limited Loreley – Fanbox) [2CD] (2017)\In Extremo – 40 wahre Lieder (CD2)\13 In Extremo -Himmel und Hölle.wav

Peak level 97.1 %
Extraction speed 8.1 X
Track quality 100.0 %
Test CRC B1E470CB
Copy CRC B1E470CB
Accurately ripped (confidence 3) [0CEAC31F] (AR v2)
Copy OK

Track 14

Filename M:\In Extremo – 40 wahre Lieder (Limited Loreley – Fanbox) [2CD] (2017)\In Extremo – 40 wahre Lieder (CD2)\14 In Extremo -Gaukler.wav

Peak level 97.1 %
Extraction speed 8.4 X
Track quality 100.0 %
Test CRC EEA825A0
Copy CRC EEA825A0
Accurately ripped (confidence 3) [D0BFD51A] (AR v2)
Copy OK

Track 15

Filename M:\In Extremo – 40 wahre Lieder (Limited Loreley – Fanbox) [2CD] (2017)\In Extremo – 40 wahre Lieder (CD2)\15 In Extremo -Belladonna.wav

Peak level 97.1 %
Extraction speed 7.5 X
Track quality 99.9 %
Test CRC 0EFF98FF
Copy CRC 0EFF98FF
Accurately ripped (confidence 3) [9285896F] (AR v2)
Copy OK

Track 16

Filename M:\In Extremo – 40 wahre Lieder (Limited Loreley – Fanbox) [2CD] (2017)\In Extremo – 40 wahre Lieder (CD2)\16 In Extremo -Loreley.wav

Peak level 97.7 %
Extraction speed 8.8 X
Track quality 100.0 %
Test CRC ED6FADB9
Copy CRC ED6FADB9
Accurately ripped (confidence 3) [4CB1D8F9] (AR v2)
Copy OK

Track 17

Filename M:\In Extremo – 40 wahre Lieder (Limited Loreley – Fanbox) [2CD] (2017)\In Extremo – 40 wahre Lieder (CD2)\17 In Extremo -Störtebeker.wav

Peak level 96.6 %
Extraction speed 8.8 X
Track quality 100.0 %
Test CRC AB3D3EEB
Copy CRC AB3D3EEB
Accurately ripped (confidence 3) [5C494797] (AR v2)
Copy OK

Track 18

Filename M:\In Extremo – 40 wahre Lieder (Limited Loreley – Fanbox) [2CD] (2017)\In Extremo – 40 wahre Lieder (CD2)\18 In Extremo -Quid Pro Quo.wav

Peak level 97.0 %
Extraction speed 8.6 X
Track quality 100.0 %
Test CRC E15AB01E
Copy CRC E15AB01E
Accurately ripped (confidence 3) [54C1E112] (AR v2)
Copy OK

Track 19

Filename M:\In Extremo – 40 wahre Lieder (Limited Loreley – Fanbox) [2CD] (2017)\In Extremo – 40 wahre Lieder (CD2)\19 In Extremo -Lieb Vaterland, magst ruhig sein.wav

Peak level 97.7 %
Extraction speed 9.6 X
Track quality 100.0 %
Test CRC 89AAC17D
Copy CRC 89AAC17D
Accurately ripped (confidence 3) [28633823] (AR v2)
Copy OK

Track 20

Filename M:\In Extremo – 40 wahre Lieder (Limited Loreley – Fanbox) [2CD] (2017)\In Extremo – 40 wahre Lieder (CD2)\20 In Extremo -Sternhagelvoll.wav

Peak level 96.6 %
Extraction speed 9.6 X
Track quality 100.0 %
Test CRC 5666C7DB
Copy CRC 5666C7DB
Accurately ripped (confidence 3) [B6F420A7] (AR v2)
Copy OK

All tracks accurately ripped

No errors occurred

End of status report

==== Log checksum 3C6A776C46CD9A6543388B203ADB74EC579E06474F6BE0D78405D9BB99489B59 ====

REM GENRE Mittelalter-Rock
REM DATE 2017
REM DISCID 12128C14
REM COMMENT “ExactAudioCopy v1.0b3”
CATALOG 0602557784329
PERFORMER “In Extremo”
TITLE “40 Wahre Lieder – The Best Of Extremo (2017) (CD 1)”
FILE “01 In Extremo -Neunerle.wav” WAVE
TRACK 01 AUDIO
TITLE “Neunerle”
PERFORMER “In Extremo”
ISRC DEUM71501341
INDEX 01 00:00:00
FILE “02 In Extremo -Villeman Og Magnhild.wav” WAVE
TRACK 02 AUDIO
TITLE “Villeman Og Magnhild”
PERFORMER “In Extremo”
ISRC DEUM71501438
INDEX 01 00:00:00
FILE “03 In Extremo -Hiemali Tempore.wav” WAVE
TRACK 03 AUDIO
TITLE “Hiemali Tempore”
PERFORMER “In Extremo”
ISRC DEUM71501436
INDEX 01 00:00:00
FILE “04 In Extremo -Ai Vis Lo Lop.wav” WAVE
TRACK 04 AUDIO
TITLE “Ai Vis Lo Lop”
PERFORMER “In Extremo”
ISRC DEUM71501434
INDEX 01 00:00:00
FILE “05 In Extremo -Spielmannsfluch.wav” WAVE
TRACK 05 AUDIO
TITLE “Spielmannsfluch”
PERFORMER “In Extremo”
ISRC DEUM71501450
INDEX 01 00:00:00
FILE “06 In Extremo -Herr Mannelig.wav” WAVE
TRACK 06 AUDIO
TITLE “Herr Mannelig”
PERFORMER “In Extremo”
ISRC DEUM71501448
INDEX 01 00:00:00
FILE “07 In Extremo -Merseburger Zauberspruche II.wav” WAVE
TRACK 07 AUDIO
TITLE “Merseburger Zauberspruche II”
PERFORMER “In Extremo”
ISRC DEUM71501462
INDEX 01 00:00:00
FILE “08 In Extremo -Vollmond.wav” WAVE
TRACK 08 AUDIO
TITLE “Vollmond”
PERFORMER “In Extremo”
ISRC DEUM71501464
INDEX 01 00:00:00
FILE “09 In Extremo -Die Gier.wav” WAVE
TRACK 09 AUDIO
TITLE “Die Gier”
PERFORMER “In Extremo”
ISRC DEUM71501465
INDEX 01 00:00:00
FILE “10 In Extremo -Omnia Sol Temperat.wav” WAVE
TRACK 10 AUDIO
TITLE “Omnia Sol Temperat”
PERFORMER “In Extremo”
ISRC DEUM71501466
INDEX 01 00:00:00
FILE “11 In Extremo -Wind.wav” WAVE
TRACK 11 AUDIO
TITLE “Wind”
PERFORMER “In Extremo”
ISRC DEUM71501459
INDEX 01 00:00:00
FILE “12 In Extremo -Kuss mich.wav” WAVE
TRACK 12 AUDIO
TITLE “Kuss mich”
PERFORMER “In Extremo”
ISRC DEUM71501477
INDEX 01 00:00:00
FILE “13 In Extremo -Erdbeermund.wav” WAVE
TRACK 13 AUDIO
TITLE “Erdbeermund”
PERFORMER “In Extremo”
ISRC DEUM71501472
INDEX 01 00:00:00
FILE “14 In Extremo -Davert-Tanz.wav” WAVE
TRACK 14 AUDIO
TITLE “Davert-Tanz”
PERFORMER “In Extremo”
ISRC DEUM71501478
INDEX 01 00:00:00
FILE “15 In Extremo -Albtraum.wav” WAVE
TRACK 15 AUDIO
TITLE “Albtraum”
PERFORMER “In Extremo”
ISRC DEUM71501480
INDEX 01 00:00:00
FILE “16 In Extremo -Rasend Herz.wav” WAVE
TRACK 16 AUDIO
TITLE “Rasend Herz”
PERFORMER “In Extremo”
ISRC DEUM71501519
INDEX 01 00:00:00
FILE “17 In Extremo -Horizont.wav” WAVE
TRACK 17 AUDIO
TITLE “Horizont”
PERFORMER “In Extremo”
ISRC DEUM71501512
INDEX 01 00:00:00
FILE “18 In Extremo feat. Rea Garvey -Liam.wav” WAVE
TRACK 18 AUDIO
TITLE “Liam”
PERFORMER “In Extremo feat. Rea Garvey”
ISRC DEUM71501518
INDEX 01 00:00:00
FILE “19 In Extremo -Singapur.wav” WAVE
TRACK 19 AUDIO
TITLE “Singapur”
PERFORMER “In Extremo”
ISRC DEUM71501520
INDEX 01 00:00:00
FILE “20 In Extremo -Nur ihr allein.wav” WAVE
TRACK 20 AUDIO
TITLE “Nur ihr allein”
PERFORMER “In Extremo”
ISRC DEUM71501514
INDEX 01 00:00:00

REM GENRE Mittelalter-Rock
REM DATE 2017
REM DISCID 3611F314
REM COMMENT “ExactAudioCopy v1.0b3”
CATALOG 0602557784336
PERFORMER “In Extremo”
TITLE “40 Wahre Lieder – The Best Of Extremo (2017) (CD 2)”
FILE “01 In Extremo -Sangerkrieg.wav” WAVE
TRACK 01 AUDIO
TITLE “Sangerkrieg”
PERFORMER “In Extremo”
ISRC DEUM71501486
INDEX 01 00:00:00
FILE “02 In Extremo -Frei zu sein.wav” WAVE
TRACK 02 AUDIO
TITLE “Frei zu sein”
PERFORMER “In Extremo”
ISRC DEUM71501491
INDEX 01 00:00:00
FILE “03 In Extremo -Flaschenpost.wav” WAVE
TRACK 03 AUDIO
TITLE “Flaschenpost”
PERFORMER “In Extremo”
ISRC DEUM71501489
INDEX 01 00:00:00
FILE “04 In Extremo -Sieben Koche.wav” WAVE
TRACK 04 AUDIO
TITLE “Sieben Koche”
PERFORMER “In Extremo”
ISRC DEUM71501485
INDEX 01 00:00:00
FILE “05 In Extremo -En Esta Noche.wav” WAVE
TRACK 05 AUDIO
TITLE “En Esta Noche”
PERFORMER “In Extremo”
ISRC DEUM71501498
INDEX 01 00:00:00
FILE “06 In Extremo -Zigeunerskat.wav” WAVE
TRACK 06 AUDIO
TITLE “Zigeunerskat”
PERFORMER “In Extremo”
ISRC DEUM71501523
INDEX 01 00:00:00
FILE “07 In Extremo -Viva La Vida.wav” WAVE
TRACK 07 AUDIO
TITLE “Viva La Vida”
PERFORMER “In Extremo”
ISRC DEUM71501525
INDEX 01 00:00:00
FILE “08 In Extremo -Siehst du das Licht.wav” WAVE
TRACK 08 AUDIO
TITLE “Siehst du das Licht”
PERFORMER “In Extremo”
ISRC DEUM71501526
INDEX 01 00:00:00
FILE “09 In Extremo feat. Mille Petrozza -Unsichtbar.wav” WAVE
TRACK 09 AUDIO
TITLE “Unsichtbar”
PERFORMER “In Extremo feat. Mille Petrozza”
ISRC DEUM71501533
INDEX 01 00:00:00
FILE “10 In Extremo -Sterneneisen.wav” WAVE
TRACK 10 AUDIO
TITLE “Sterneneisen”
PERFORMER “In Extremo”
ISRC DEUM71501529
INDEX 01 00:00:00
FILE “11 In Extremo -Feuertaufe.wav” WAVE
TRACK 11 AUDIO
TITLE “Feuertaufe”
PERFORMER “In Extremo”
ISRC DEUM71501505
INDEX 01 00:00:00
FILE “12 In Extremo -Alles schon gesehen.wav” WAVE
TRACK 12 AUDIO
TITLE “Alles schon gesehen”
PERFORMER “In Extremo”
ISRC DEUM71501508
INDEX 01 00:00:00
FILE “13 In Extremo -Himmel und Holle.wav” WAVE
TRACK 13 AUDIO
TITLE “Himmel und Holle”
PERFORMER “In Extremo”
ISRC DEUM71501502
INDEX 01 00:00:00
FILE “14 In Extremo -Gaukler.wav” WAVE
TRACK 14 AUDIO
TITLE “Gaukler”
PERFORMER “In Extremo”
ISRC DEUM71501503
INDEX 01 00:00:00
FILE “15 In Extremo -Belladonna.wav” WAVE
TRACK 15 AUDIO
TITLE “Belladonna”
PERFORMER “In Extremo”
ISRC DEUM71501509
INDEX 01 00:00:00
FILE “16 In Extremo -Loreley.wav” WAVE
TRACK 16 AUDIO
TITLE “Loreley”
PERFORMER “In Extremo”
ISRC DEUM71502150
INDEX 01 00:00:00
FILE “17 In Extremo -Stortebeker.wav” WAVE
TRACK 17 AUDIO
TITLE “Stortebeker”
PERFORMER “In Extremo”
ISRC DEUM71601152
INDEX 01 00:00:00
FILE “18 In Extremo -Quid Pro Quo.wav” WAVE
TRACK 18 AUDIO
TITLE “Quid Pro Quo”
PERFORMER “In Extremo”
ISRC DEUM71601154
INDEX 01 00:00:00
FILE “19 In Extremo -Lieb Vaterland, magst ruhig sein.wav” WAVE
TRACK 19 AUDIO
TITLE “Lieb Vaterland, magst ruhig sein”
PERFORMER “In Extremo”
ISRC DEUM71601156
INDEX 01 00:00:00
FILE “20 In Extremo -Sternhagelvoll.wav” WAVE
TRACK 20 AUDIO
TITLE “Sternhagelvoll”
PERFORMER “In Extremo”
ISRC DEUM71601162
INDEX 01 00:00:00


Leave a Reply

Your email address will not be published. Required fields are marked *

Enter the text from the image below
 

This site uses Akismet to reduce spam. Learn how your comment data is processed.