Imagine Dragons – Smoke + Mirrors (Super Deluxe Edition)




Artist: Imagine Dragons
Year: 2015
Genre: Rock
Notes: Discogs
Add. Notes:
Cover incl.: No
Encoder: FLAC
Bitrate: ~900 kBit/s (44.1 kHz/16 Bit/s)
Log & Cue incl.: Yes
Size: 523,7 MB
Password: “slam” (without ” “)


All Downloads/Hosters are compatible

Download 1
KatFile.com
Turbobit.net
FileFactory.com
Rapidgator.net
Download 2
KatFile.com
Turbobit.net
FileFactory.com
Rapidgator.net

Tracklist:

1-1 Shots 3:52
1-2 Gold 3:37
1-3 Smoke And Mirrors 4:21
1-4 I'm So Sorry 3:50
1-5 I Bet My Life 3:14
1-6 Polaroid 3:51
1-7 Friction 3:22
1-8 It Comes Back To You 3:37
1-9 Dream 4:19
1-10 Trouble 3:13
1-11 Summer 3:38
1-12 Hopeless Opus 4:02
1-13 The Fall 6:02

Bonus Disc
2-1 Thief 3:48
2-2 The Unknown 3:25
2-3 Second Chances 3:38
2-4 Release 2:29
2-5 Warriors 2:51
2-6 Battle Cry 4:34
2-7 Monster 4:11
2-8 Who We Are 4:10

EAC-Log, CUE-Sheed & NFO:

Click to open spoiler
Exact Audio Copy V1.0 beta 3 from 29. August 2011

EAC extraction logfile from 27. February 2015, 21:11

Imagine Dragons / Smoke + Mirrors

Used drive : Optiarc DVD RW AD-7700H Adapter: 2 ID: 0

Read mode : Secure
Utilize accurate stream : Yes
Defeat audio cache : Yes
Make use of C2 pointers : No

Read offset correction : 48
Overread into Lead-In and Lead-Out : No
Fill up missing offset samples with silence : Yes
Delete leading and trailing silent blocks : No
Null samples used in CRC calculations : Yes
Used interface : Native Win32 interface for Win NT & 2000
Gap handling : Appended to previous track

Used output format : User Defined Encoder
Selected bitrate : 1024 kBit/s
Quality : High
Add ID3 tag : No
Command line compressor : D:\Exact Audio Copy\flac.exe
Additional command line options : -8 -V -T “ARTIST=%artist%” -T “TITLE=%title%” -T “ALBUM=%albumtitle%” -T “DATE=%year%” -T “TRACKNUMBER=%tracknr%” -T “GENRE=%genre%” -T “PERFORMER=%albuminterpret%” -T “COMPOSER=%composer%” %haslyrics%–tag-from-file=LYRICS=”%lyricsfile%”%haslyrics% -T “ALBUMARTIST=%albumartist%” -T “DISCNUMBER=%cdnumber%” -T “TOTALDISCS=%totalcds%” -T “TOTALTRACKS=%numtracks%” -T “COMMENT=%comment%” %source% -o %dest%

TOC of the extracted CD

Track | Start | Length | Start sector | End sector
———————————————————
1 | 0:00.00 | 3:52.25 | 0 | 17424
2 | 3:52.25 | 3:36.61 | 17425 | 33685
3 | 7:29.11 | 4:20.68 | 33686 | 53253
4 | 11:50.04 | 3:50.26 | 53254 | 70529
5 | 15:40.30 | 3:14.15 | 70530 | 85094
6 | 18:54.45 | 3:51.10 | 85095 | 102429
7 | 22:45.55 | 3:21.60 | 102430 | 117564
8 | 26:07.40 | 3:37.30 | 117565 | 133869
9 | 29:44.70 | 4:18.74 | 133870 | 153293
10 | 34:03.69 | 3:12.56 | 153294 | 167749
11 | 37:16.50 | 3:38.21 | 167750 | 184120
12 | 40:54.71 | 4:01.61 | 184121 | 202256
13 | 44:56.57 | 6:02.35 | 202257 | 229441

Track 1

Filename D:\Imagine Dragons – Smoke And Mirrors (2015) [FLAC]\Disc1\01 – Shots.wav

Pre-gap length 0:00:02.00

Peak level 98.8 %
Extraction speed 2.3 X
Track quality 100.0 %
Test CRC 20520B22
Copy CRC 20520B22
Track not present in AccurateRip database
Copy OK

Track 2

Filename D:\Imagine Dragons – Smoke And Mirrors (2015) [FLAC]\Disc1\02 – Gold.wav

Peak level 98.8 %
Extraction speed 1.7 X
Track quality 99.9 %
Test CRC 56BD4294
Copy CRC 56BD4294
Track not present in AccurateRip database
Copy OK

Track 3

Filename D:\Imagine Dragons – Smoke And Mirrors (2015) [FLAC]\Disc1\03 – Smoke And Mirrors.wav

Peak level 98.8 %
Extraction speed 2.0 X
Track quality 99.9 %
Test CRC 3A2EDF08
Copy CRC 3A2EDF08
Track not present in AccurateRip database
Copy OK

Track 4

Filename D:\Imagine Dragons – Smoke And Mirrors (2015) [FLAC]\Disc1\04 – I’m So Sorry.wav

Peak level 98.8 %
Extraction speed 2.9 X
Track quality 100.0 %
Test CRC F0592F48
Copy CRC F0592F48
Track not present in AccurateRip database
Copy OK

Track 5

Filename D:\Imagine Dragons – Smoke And Mirrors (2015) [FLAC]\Disc1\05 – I Bet My Life.wav

Peak level 98.8 %
Extraction speed 2.0 X
Track quality 99.9 %
Test CRC 8E9EE4EC
Copy CRC 8E9EE4EC
Track not present in AccurateRip database
Copy OK

Track 6

Filename D:\Imagine Dragons – Smoke And Mirrors (2015) [FLAC]\Disc1\06 – Polaroid.wav

Pre-gap length 0:00:01.50

Peak level 98.8 %
Extraction speed 3.2 X
Track quality 100.0 %
Test CRC 70D64628
Copy CRC 70D64628
Track not present in AccurateRip database
Copy OK

Track 7

Filename D:\Imagine Dragons – Smoke And Mirrors (2015) [FLAC]\Disc1\07 – Friction.wav

Pre-gap length 0:00:01.13

Peak level 98.8 %
Extraction speed 3.3 X
Track quality 100.0 %
Test CRC 6AF634E6
Copy CRC 6AF634E6
Track not present in AccurateRip database
Copy OK

Track 8

Filename D:\Imagine Dragons – Smoke And Mirrors (2015) [FLAC]\Disc1\08 – It Comes Back To You.wav

Peak level 98.8 %
Extraction speed 3.4 X
Track quality 100.0 %
Test CRC C9D56374
Copy CRC C9D56374
Track not present in AccurateRip database
Copy OK

Track 9

Filename D:\Imagine Dragons – Smoke And Mirrors (2015) [FLAC]\Disc1\09 – Dream.wav

Peak level 98.8 %
Extraction speed 3.7 X
Track quality 100.0 %
Test CRC FA120851
Copy CRC FA120851
Track not present in AccurateRip database
Copy OK

Track 10

Filename D:\Imagine Dragons – Smoke And Mirrors (2015) [FLAC]\Disc1\10 – Trouble.wav

Pre-gap length 0:00:01.00

Peak level 98.8 %
Extraction speed 3.7 X
Track quality 100.0 %
Test CRC 94AF912E
Copy CRC 94AF912E
Track not present in AccurateRip database
Copy OK

Track 11

Filename D:\Imagine Dragons – Smoke And Mirrors (2015) [FLAC]\Disc1\11 – Summer.wav

Pre-gap length 0:00:01.36

Peak level 98.8 %
Extraction speed 3.9 X
Track quality 100.0 %
Test CRC 67821E48
Copy CRC 67821E48
Track not present in AccurateRip database
Copy OK

Track 12

Filename D:\Imagine Dragons – Smoke And Mirrors (2015) [FLAC]\Disc1\12 – Hopeless Opus.wav

Peak level 98.8 %
Extraction speed 4.0 X
Track quality 100.0 %
Test CRC B31C90F2
Copy CRC B31C90F2
Track not present in AccurateRip database
Copy OK

Track 13

Filename D:\Imagine Dragons – Smoke And Mirrors (2015) [FLAC]\Disc1\13 – The Fall.wav

Pre-gap length 0:00:03.02

Peak level 98.8 %
Extraction speed 4.4 X
Track quality 100.0 %
Test CRC 2639D047
Copy CRC 2639D047
Track not present in AccurateRip database
Copy OK

None of the tracks are present in the AccurateRip database

No errors occurred

End of status report

—- CUETools DB Plugin V2.1.3

[CTDB TOCID: rob3M8dC9lu2QAY05YgWZG4F6BQ-] found, Submit result: database access error: 操作超时
[1735008f] (57/58) Accurately ripped
[51aaa5c9] (01/58) No match

==== Log checksum 2EF32B6C5F4820CD4C9D446D6E25BAFDA02110137E9CF9DC16795B26EA35685A ====

Exact Audio Copy V1.0 beta 3 from 29. August 2011

EAC extraction logfile from 27. February 2015, 21:39

Imagine Dragons / Smoke + Mirrors

Used drive : Optiarc DVD RW AD-7700H Adapter: 2 ID: 0

Read mode : Secure
Utilize accurate stream : Yes
Defeat audio cache : Yes
Make use of C2 pointers : No

Read offset correction : 48
Overread into Lead-In and Lead-Out : No
Fill up missing offset samples with silence : Yes
Delete leading and trailing silent blocks : No
Null samples used in CRC calculations : Yes
Used interface : Native Win32 interface for Win NT & 2000
Gap handling : Appended to previous track

Used output format : User Defined Encoder
Selected bitrate : 1024 kBit/s
Quality : High
Add ID3 tag : No
Command line compressor : D:\Exact Audio Copy\flac.exe
Additional command line options : -8 -V -T “ARTIST=%artist%” -T “TITLE=%title%” -T “ALBUM=%albumtitle%” -T “DATE=%year%” -T “TRACKNUMBER=%tracknr%” -T “GENRE=%genre%” -T “PERFORMER=%albuminterpret%” -T “COMPOSER=%composer%” %haslyrics%–tag-from-file=LYRICS=”%lyricsfile%”%haslyrics% -T “ALBUMARTIST=%albumartist%” -T “DISCNUMBER=%cdnumber%” -T “TOTALDISCS=%totalcds%” -T “TOTALTRACKS=%numtracks%” -T “COMMENT=%comment%” %source% -o %dest%

TOC of the extracted CD

Track | Start | Length | Start sector | End sector
———————————————————
1 | 0:00.00 | 3:47.47 | 0 | 17071
2 | 3:47.47 | 3:24.53 | 17072 | 32424
3 | 7:12.25 | 3:37.70 | 32425 | 48769
4 | 10:50.20 | 2:29.17 | 48770 | 59961
5 | 13:19.37 | 2:51.06 | 59962 | 72792
6 | 16:10.43 | 4:34.23 | 72793 | 93365
7 | 20:44.66 | 4:10.38 | 93366 | 112153
8 | 24:55.29 | 4:09.44 | 112154 | 130872

Track 1

Filename D:\Imagine Dragons – Smoke And Mirrors (2015) [FLAC]\Disc2\01 – Thief.wav

Pre-gap length 0:00:02.00

Peak level 98.8 %
Extraction speed 2.2 X
Track quality 100.0 %
Test CRC 4681ECC3
Copy CRC 4681ECC3
Track not present in AccurateRip database
Copy OK

Track 2

Filename D:\Imagine Dragons – Smoke And Mirrors (2015) [FLAC]\Disc2\02 – The Unknown.wav

Peak level 98.8 %
Extraction speed 2.4 X
Track quality 100.0 %
Test CRC 1D19678D
Copy CRC 1D19678D
Track not present in AccurateRip database
Copy OK

Track 3

Filename D:\Imagine Dragons – Smoke And Mirrors (2015) [FLAC]\Disc2\03 – Second Chances.wav

Peak level 98.8 %
Extraction speed 2.7 X
Track quality 100.0 %
Test CRC F78DF155
Copy CRC F78DF155
Track not present in AccurateRip database
Copy OK

Track 4

Filename D:\Imagine Dragons – Smoke And Mirrors (2015) [FLAC]\Disc2\04 – Release.wav

Peak level 85.1 %
Extraction speed 2.6 X
Track quality 100.0 %
Test CRC 03276BE7
Copy CRC 03276BE7
Track not present in AccurateRip database
Copy OK

Track 5

Filename D:\Imagine Dragons – Smoke And Mirrors (2015) [FLAC]\Disc2\05 – Warriors.wav

Peak level 100.0 %
Extraction speed 2.8 X
Track quality 100.0 %
Test CRC A0C10ACE
Copy CRC A0C10ACE
Track not present in AccurateRip database
Copy OK

Track 6

Filename D:\Imagine Dragons – Smoke And Mirrors (2015) [FLAC]\Disc2\06 – Battle Cry.wav

Peak level 98.8 %
Extraction speed 3.2 X
Track quality 100.0 %
Test CRC 7AF6E7CF
Copy CRC 7AF6E7CF
Track not present in AccurateRip database
Copy OK

Track 7

Filename D:\Imagine Dragons – Smoke And Mirrors (2015) [FLAC]\Disc2\07 – Monster.wav

Peak level 98.8 %
Extraction speed 3.4 X
Track quality 100.0 %
Test CRC 6C63E94F
Copy CRC 6C63E94F
Track not present in AccurateRip database
Copy OK

Track 8

Filename D:\Imagine Dragons – Smoke And Mirrors (2015) [FLAC]\Disc2\08 – Who We Are.wav

Peak level 100.0 %
Extraction speed 3.5 X
Track quality 100.0 %
Test CRC 21D3CB45
Copy CRC 21D3CB45
Track not present in AccurateRip database
Copy OK

None of the tracks are present in the AccurateRip database

No errors occurred

End of status report

—- CUETools DB Plugin V2.1.3

[CTDB TOCID: EEtaPSlvDWukB_lHR5iRo38Q9ZA-] found, Submit result: EEtaPSlvDWukB_lHR5iRo38Q9ZA- has been confirmed
[6439a5ea] (18/18) Accurately ripped

==== Log checksum ACA13F117FC36635C05662265060082EF0DA812D6BC52785FE40F026DACC5A19 ====

REM GENRE “Indie Rock”
REM DATE 2015
REM DISCID B90BF30D
REM COMMENT “ExactAudioCopy v1.0b3”
CATALOG 0602547161697
PERFORMER “Imagine Dragons”
TITLE “Smoke + Mirrors”
FILE “01 Shots.flac” WAVE
TRACK 01 AUDIO
TITLE “Shots”
PERFORMER “Imagine Dragons”
ISRC USUM71417944
INDEX 01 00:00:00
FILE “02 Gold.flac” WAVE
TRACK 02 AUDIO
TITLE “Gold”
PERFORMER “Imagine Dragons”
ISRC USUM71417914
INDEX 01 00:00:00
FILE “03 Smoke And Mirrors.flac” WAVE
TRACK 03 AUDIO
TITLE “Smoke And Mirrors”
PERFORMER “Imagine Dragons”
ISRC USUM71417930
INDEX 01 00:00:00
FILE “04 I’m So Sorry.flac” WAVE
TRACK 04 AUDIO
TITLE “I’m So Sorry”
PERFORMER “Imagine Dragons”
ISRC USUM71417931
INDEX 01 00:00:00
FILE “05 I Bet My Life.flac” WAVE
TRACK 05 AUDIO
TITLE “I Bet My Life”
PERFORMER “Imagine Dragons”
ISRC USUM71415785
INDEX 01 00:00:00
TRACK 06 AUDIO
TITLE “Polaroid”
PERFORMER “Imagine Dragons”
ISRC USUM71417932
INDEX 00 03:12:52
FILE “06 Polaroid.flac” WAVE
INDEX 01 00:00:00
TRACK 07 AUDIO
TITLE “Friction”
PERFORMER “Imagine Dragons”
ISRC USUM71417933
INDEX 00 03:50:00
FILE “07 Friction.flac” WAVE
INDEX 01 00:00:00
FILE “08 It Comes Back To You.flac” WAVE
TRACK 08 AUDIO
TITLE “It Comes Back To You”
PERFORMER “Imagine Dragons”
ISRC USUM71417934
INDEX 01 00:00:00
FILE “09 Dream.flac” WAVE
TRACK 09 AUDIO
TITLE “Dream”
PERFORMER “Imagine Dragons”
ISRC USUM71417935
INDEX 01 00:00:00
TRACK 10 AUDIO
TITLE “Trouble”
PERFORMER “Imagine Dragons”
ISRC USUM71417937
INDEX 00 04:17:74
FILE “10 Trouble.flac” WAVE
INDEX 01 00:00:00
TRACK 11 AUDIO
TITLE “Summer”
PERFORMER “Imagine Dragons”
ISRC USUM71417936
INDEX 00 03:11:29
FILE “11 Summer.flac” WAVE
INDEX 01 00:00:00
FILE “12 Hopeless Opus.flac” WAVE
TRACK 12 AUDIO
TITLE “Hopeless Opus”
PERFORMER “Imagine Dragons”
ISRC USUM71417938
INDEX 01 00:00:00
TRACK 13 AUDIO
TITLE “The Fall”
PERFORMER “Imagine Dragons”
ISRC USUM71417939
INDEX 00 03:58:59
FILE “13 The Fall.flac” WAVE
INDEX 01 00:00:00

REM GENRE “Indie Rock”
REM DATE 2015
REM DISCID 6406D008
REM COMMENT “ExactAudioCopy v1.0b3”
CATALOG 0602547186683
PERFORMER “Imagine Dragons”
TITLE “Smoke + Mirrors”
FILE “01 Thief.flac” WAVE
TRACK 01 AUDIO
TITLE “Thief”
PERFORMER “Imagine Dragons”
ISRC USUM71417941
INDEX 01 00:00:00
FILE “02 The Unknown.flac” WAVE
TRACK 02 AUDIO
TITLE “The Unknown”
PERFORMER “Imagine Dragons”
ISRC USUM71417940
INDEX 01 00:00:00
FILE “03 Second Chances.flac” WAVE
TRACK 03 AUDIO
TITLE “Second Chances”
PERFORMER “Imagine Dragons”
ISRC USUM71417943
INDEX 01 00:00:00
FILE “04 Release.flac” WAVE
TRACK 04 AUDIO
TITLE “Release”
PERFORMER “Imagine Dragons”
ISRC USUM71417942
INDEX 01 00:00:00
FILE “05 Warriors.flac” WAVE
TRACK 05 AUDIO
TITLE “Warriors”
PERFORMER “Imagine Dragons”
ISRC USUM71414163
INDEX 01 00:00:00
FILE “06 Battle Cry.flac” WAVE
TRACK 06 AUDIO
TITLE “Battle Cry”
PERFORMER “Imagine Dragons”
ISRC USUM71406333
INDEX 01 00:00:00
INDEX 02 04:34:23
FILE “07 Monster.flac” WAVE
TRACK 07 AUDIO
TITLE “Monster”
PERFORMER “Imagine Dragons”
ISRC USUM71311709
INDEX 01 00:00:00
FILE “08 Who We Are.flac” WAVE
TRACK 08 AUDIO
TITLE “Who We Are”
PERFORMER “Imagine Dragons”
ISRC USUM71312917
INDEX 01 00:00:00


Leave a Reply

Your email address will not be published. Required fields are marked *

This site uses Akismet to reduce spam. Learn how your comment data is processed.