Imagine Dragons – Origins (Deluxe Edition)




[Total: 0    Average: 0/5]

Artist: Imagine Dragons
Year: 2018
Genre: Rock
Notes: Discogs
Add. Notes: Deluxe Edition
Cover incl.: Yes
Encoder: FLAC
Bitrate: ~1000 kBit/s (44.1 kHz/16 Bit/s)
Log & Cue incl.: Yes
Size: 383,5 MB
Password: “slam” (without ” “)


All Downloads/Hosters are compatible

Download 1
Share-online.biz
KatFile.com
Rapidgator.net
DoUploads.net
Download 2
Share-online.biz
KatFile.com
Rapidgator.net
DoUploads.net

Tracklist:

1 - Natural - 3:09
2 - Boomerang - 3:07
3 - Machine - 3:01
4 - Cool Out - 3:37
5 - Bad Liar - 4:20
6 - West Coast - 3:37
7 - Zero - 3:30
8 - Bullet In A Gun - 3:24
9 - Digital - 3:21
10 - Only - 3:00
11 - Stuck - 3:10
12 - Love - 2:46
International Bonus Tracks
13 - Birds - 3:39
14 - Burn Out - 4:33
15 - Real Life - 4:07
16 - Born To Be Yours - 3:13

EAC-Log, CUE-Sheed & NFO:

Click to open spoiler
Exact Audio Copy V1.3 from 2. September 2016

EAC extraction logfile from 22. December 2018, 11:02

Imagine Dragons / Origins

Used drive : PLEXTOR PX-891SAF Adapter: 1 ID: 0

Read mode : Secure
Utilize accurate stream : Yes
Defeat audio cache : Yes
Make use of C2 pointers : No

Read offset correction : 6
Overread into Lead-In and Lead-Out : No
Fill up missing offset samples with silence : Yes
Delete leading and trailing silent blocks : No
Null samples used in CRC calculations : Yes
Used interface : Native Win32 interface for Win NT & 2000
Gap handling : Appended to previous track

Used output format : User Defined Encoder
Selected bitrate : 1024 kBit/s
Quality : High
Add ID3 tag : No
Command line compressor : C:\Program Files (x86)\Exact Audio Copy\Flac\flac.exe
Additional command line options : -8 -V -T “ARTIST=%artist%” -T “TITLE=%title%” -T “ALBUM=%albumtitle%” -T “DATE=%year%” -T “TRACKNUMBER=%tracknr%” -T “GENRE=%genre%” -T “PERFORMER=%albuminterpret%” -T “COMPOSER=%composer%” %haslyrics%–tag-from-file=LYRICS=”%lyricsfile%”%haslyrics% -T “ALBUMARTIST=%albumartist%” -T “DISCNUMBER=%cdnumber%” -T “TOTALDISCS=%totalcds%” -T “TOTALTRACKS=%numtracks%” -T “COMMENT=%comment%” %source% -o %dest%

TOC of the extracted CD

Track | Start | Length | Start sector | End sector
———————————————————
1 | 0:00.00 | 3:09.35 | 0 | 14209
2 | 3:09.35 | 3:07.60 | 14210 | 28294
3 | 6:17.20 | 3:01.66 | 28295 | 41935
4 | 9:19.11 | 3:37.65 | 41936 | 58275
5 | 12:57.01 | 4:20.58 | 58276 | 77833
6 | 17:17.59 | 3:37.13 | 77834 | 94121
7 | 20:54.72 | 3:30.70 | 94122 | 109941
8 | 24:25.67 | 3:24.64 | 109942 | 125305
9 | 27:50.56 | 3:21.03 | 125306 | 140383
10 | 31:11.59 | 3:00.55 | 140384 | 153938
11 | 34:12.39 | 3:10.64 | 153939 | 168252
12 | 37:23.28 | 2:46.27 | 168253 | 180729
13 | 40:09.55 | 3:39.33 | 180730 | 197187
14 | 43:49.13 | 4:33.66 | 197188 | 217728
15 | 48:23.04 | 4:07.41 | 217729 | 236294
16 | 52:30.45 | 3:13.24 | 236295 | 250793

Track 1

Filename D:\#New wav + flac\Imagine Dragons – Origins {Deluxe Edition}\01. Imagine Dragons – Natural.wav

Pre-gap length 0:00:02.00

Peak level 99.8 %
Extraction speed 4.8 X
Track quality 100.0 %
Test CRC 3676825C
Copy CRC 3676825C
Accurately ripped (confidence 2) [10CEC4CD] (AR v2)
Copy OK

Track 2

Filename D:\#New wav + flac\Imagine Dragons – Origins {Deluxe Edition}\02. Imagine Dragons – Boomerang.wav

Peak level 100.0 %
Extraction speed 5.2 X
Track quality 100.0 %
Test CRC 9AC1489D
Copy CRC 9AC1489D
Accurately ripped (confidence 2) [65485232] (AR v2)
Copy OK

Track 3

Filename D:\#New wav + flac\Imagine Dragons – Origins {Deluxe Edition}\03. Imagine Dragons – Machine.wav

Peak level 100.0 %
Extraction speed 5.5 X
Track quality 100.0 %
Test CRC 4814A749
Copy CRC 4814A749
Accurately ripped (confidence 2) [A8CD37AD] (AR v2)
Copy OK

Track 4

Filename D:\#New wav + flac\Imagine Dragons – Origins {Deluxe Edition}\04. Imagine Dragons – Cool Out.wav

Peak level 100.0 %
Extraction speed 6.1 X
Track quality 100.0 %
Test CRC 0DE9DAD9
Copy CRC 0DE9DAD9
Accurately ripped (confidence 1) [C85E2AE6] (AR v2)
Copy OK

Track 5

Filename D:\#New wav + flac\Imagine Dragons – Origins {Deluxe Edition}\05. Imagine Dragons – Bad Liar.wav

Peak level 100.0 %
Extraction speed 6.6 X
Track quality 100.0 %
Test CRC 7A3F17B5
Copy CRC 7A3F17B5
Accurately ripped (confidence 1) [558805A0] (AR v2)
Copy OK

Track 6

Filename D:\#New wav + flac\Imagine Dragons – Origins {Deluxe Edition}\06. Imagine Dragons – West Coast.wav

Peak level 94.1 %
Extraction speed 6.9 X
Track quality 100.0 %
Test CRC D82709B0
Copy CRC D82709B0
Accurately ripped (confidence 1) [996C1C4B] (AR v2)
Copy OK

Track 7

Filename D:\#New wav + flac\Imagine Dragons – Origins {Deluxe Edition}\07. Imagine Dragons – Zero (from the original motion picture “Ralph Breaks the Internet”).wav

Peak level 100.0 %
Extraction speed 7.3 X
Track quality 100.0 %
Test CRC 8A3E6406
Copy CRC 8A3E6406
Accurately ripped (confidence 1) [AEDE8FE2] (AR v2)
Copy OK

Track 8

Filename D:\#New wav + flac\Imagine Dragons – Origins {Deluxe Edition}\08. Imagine Dragons – Bullet in a Gun.wav

Peak level 99.9 %
Extraction speed 6.1 X
Track quality 99.9 %
Test CRC EEB293D2
Copy CRC EEB293D2
Accurately ripped (confidence 1) [36E35426] (AR v2)
Copy OK

Track 9

Filename D:\#New wav + flac\Imagine Dragons – Origins {Deluxe Edition}\09. Imagine Dragons – Digital.wav

Peak level 99.9 %
Extraction speed 7.7 X
Track quality 100.0 %
Test CRC EAE03F73
Copy CRC EAE03F73
Accurately ripped (confidence 1) [9B220B8B] (AR v2)
Copy OK

Track 10

Filename D:\#New wav + flac\Imagine Dragons – Origins {Deluxe Edition}\10. Imagine Dragons – Only.wav

Peak level 100.0 %
Extraction speed 7.8 X
Track quality 100.0 %
Test CRC 25029FCB
Copy CRC 25029FCB
Accurately ripped (confidence 1) [5253A47B] (AR v2)
Copy OK

Track 11

Filename D:\#New wav + flac\Imagine Dragons – Origins {Deluxe Edition}\11. Imagine Dragons – Stuck.wav

Peak level 96.7 %
Extraction speed 8.2 X
Track quality 100.0 %
Test CRC 9205833C
Copy CRC 9205833C
Accurately ripped (confidence 1) [6FBB6391] (AR v2)
Copy OK

Track 12

Filename D:\#New wav + flac\Imagine Dragons – Origins {Deluxe Edition}\12. Imagine Dragons – Love.wav

Peak level 100.0 %
Extraction speed 6.2 X
Track quality 99.9 %
Test CRC B35A471E
Copy CRC B35A471E
Accurately ripped (confidence 1) [9F504754] (AR v2)
Copy OK

Track 13

Filename D:\#New wav + flac\Imagine Dragons – Origins {Deluxe Edition}\13. Imagine Dragons – Birds.wav

Peak level 100.0 %
Extraction speed 7.1 X
Track quality 99.9 %
Test CRC 28B91B80
Copy CRC 28B91B80
Accurately ripped (confidence 1) [03DC5A2A] (AR v2)
Copy OK

Track 14

Filename D:\#New wav + flac\Imagine Dragons – Origins {Deluxe Edition}\14. Imagine Dragons – Burn Out.wav

Peak level 94.7 %
Extraction speed 7.7 X
Track quality 99.9 %
Test CRC 831F0CB2
Copy CRC 831F0CB2
Accurately ripped (confidence 1) [AA21FC86] (AR v2)
Copy OK

Track 15

Filename D:\#New wav + flac\Imagine Dragons – Origins {Deluxe Edition}\15. Imagine Dragons – Real Life.wav

Peak level 94.4 %
Extraction speed 9.5 X
Track quality 100.0 %
Test CRC 72055E3F
Copy CRC 72055E3F
Accurately ripped (confidence 1) [F627B11A] (AR v2)
Copy OK

Track 16

Filename D:\#New wav + flac\Imagine Dragons – Origins {Deluxe Edition}\16. Imagine Dragons & Kygo – Born to Be Yours.wav

Peak level 94.2 %
Extraction speed 9.2 X
Track quality 100.0 %
Test CRC 9E04CF55
Copy CRC 9E04CF55
Accurately ripped (confidence 1) [0ED9DF55] (AR v2)
Copy OK

All tracks accurately ripped

No errors occurred

End of status report

—- CUETools DB Plugin V2.1.6

[CTDB TOCID: L.DWKNX_9Kt.XjOnT21aAekaCGQ-] found
Submit result: L.DWKNX_9Kt.XjOnT21aAekaCGQ- has been confirmed
Track | CTDB Status
1 | (115/116) Accurately ripped
2 | (116/116) Accurately ripped
3 | (116/116) Accurately ripped
4 | (116/116) Accurately ripped
5 | (115/116) Accurately ripped
6 | (116/116) Accurately ripped
7 | (116/116) Accurately ripped
8 | (115/116) Accurately ripped
9 | (116/116) Accurately ripped
10 | (116/116) Accurately ripped
11 | (116/116) Accurately ripped
12 | (116/116) Accurately ripped
13 | (116/116) Accurately ripped
14 | (115/116) Accurately ripped
15 | (116/116) Accurately ripped
16 | (116/116) Accurately ripped

==== Log checksum D9577CE2226A2AFF4DCC5E067298FFC0E2A61430D396997FDDDEBF838282499B ====

————————————————————

Exact Audio Copy V1.3 from 2. September 2016

EAC extraction logfile from 22. December 2018, 11:02

Imagine Dragons / Origins

Used drive : PLEXTOR PX-891SAF Adapter: 1 ID: 0

Read mode : Secure
Utilize accurate stream : Yes
Defeat audio cache : Yes
Make use of C2 pointers : No

Read offset correction : 6
Overread into Lead-In and Lead-Out : No
Fill up missing offset samples with silence : Yes
Delete leading and trailing silent blocks : No
Null samples used in CRC calculations : Yes
Used interface : Native Win32 interface for Win NT & 2000
Gap handling : Appended to previous track

Used output format : User Defined Encoder
Selected bitrate : 1024 kBit/s
Quality : High
Add ID3 tag : No
Command line compressor : C:\Program Files (x86)\Exact Audio Copy\Flac\flac.exe
Additional command line options : -8 -V -T “ARTIST=%artist%” -T “TITLE=%title%” -T “ALBUM=%albumtitle%” -T “DATE=%year%” -T “TRACKNUMBER=%tracknr%” -T “GENRE=%genre%” -T “PERFORMER=%albuminterpret%” -T “COMPOSER=%composer%” %haslyrics%–tag-from-file=LYRICS=”%lyricsfile%”%haslyrics% -T “ALBUMARTIST=%albumartist%” -T “DISCNUMBER=%cdnumber%” -T “TOTALDISCS=%totalcds%” -T “TOTALTRACKS=%numtracks%” -T “COMMENT=%comment%” %source% -o %dest%

TOC of the extracted CD

Track | Start | Length | Start sector | End sector
———————————————————
1 | 0:00.00 | 3:09.35 | 0 | 14209
2 | 3:09.35 | 3:07.60 | 14210 | 28294
3 | 6:17.20 | 3:01.66 | 28295 | 41935
4 | 9:19.11 | 3:37.65 | 41936 | 58275
5 | 12:57.01 | 4:20.58 | 58276 | 77833
6 | 17:17.59 | 3:37.13 | 77834 | 94121
7 | 20:54.72 | 3:30.70 | 94122 | 109941
8 | 24:25.67 | 3:24.64 | 109942 | 125305
9 | 27:50.56 | 3:21.03 | 125306 | 140383
10 | 31:11.59 | 3:00.55 | 140384 | 153938
11 | 34:12.39 | 3:10.64 | 153939 | 168252
12 | 37:23.28 | 2:46.27 | 168253 | 180729
13 | 40:09.55 | 3:39.33 | 180730 | 197187
14 | 43:49.13 | 4:33.66 | 197188 | 217728
15 | 48:23.04 | 4:07.41 | 217729 | 236294
16 | 52:30.45 | 3:13.24 | 236295 | 250793

Track 1

Filename D:\#New wav + flac\Imagine Dragons – Origins {Deluxe Edition}\01. Imagine Dragons – Natural.wav

Pre-gap length 0:00:02.00

Peak level 99.8 %
Extraction speed 4.8 X
Track quality 100.0 %
Test CRC 3676825C
Copy CRC 3676825C
Accurately ripped (confidence 2) [10CEC4CD] (AR v2)
Copy OK

Track 2

Filename D:\#New wav + flac\Imagine Dragons – Origins {Deluxe Edition}\02. Imagine Dragons – Boomerang.wav

Peak level 100.0 %
Extraction speed 5.2 X
Track quality 100.0 %
Test CRC 9AC1489D
Copy CRC 9AC1489D
Accurately ripped (confidence 2) [65485232] (AR v2)
Copy OK

Track 3

Filename D:\#New wav + flac\Imagine Dragons – Origins {Deluxe Edition}\03. Imagine Dragons – Machine.wav

Peak level 100.0 %
Extraction speed 5.5 X
Track quality 100.0 %
Test CRC 4814A749
Copy CRC 4814A749
Accurately ripped (confidence 2) [A8CD37AD] (AR v2)
Copy OK

Track 4

Filename D:\#New wav + flac\Imagine Dragons – Origins {Deluxe Edition}\04. Imagine Dragons – Cool Out.wav

Peak level 100.0 %
Extraction speed 6.1 X
Track quality 100.0 %
Test CRC 0DE9DAD9
Copy CRC 0DE9DAD9
Accurately ripped (confidence 1) [C85E2AE6] (AR v2)
Copy OK

Track 5

Filename D:\#New wav + flac\Imagine Dragons – Origins {Deluxe Edition}\05. Imagine Dragons – Bad Liar.wav

Peak level 100.0 %
Extraction speed 6.6 X
Track quality 100.0 %
Test CRC 7A3F17B5
Copy CRC 7A3F17B5
Accurately ripped (confidence 1) [558805A0] (AR v2)
Copy OK

Track 6

Filename D:\#New wav + flac\Imagine Dragons – Origins {Deluxe Edition}\06. Imagine Dragons – West Coast.wav

Peak level 94.1 %
Extraction speed 6.9 X
Track quality 100.0 %
Test CRC D82709B0
Copy CRC D82709B0
Accurately ripped (confidence 1) [996C1C4B] (AR v2)
Copy OK

Track 7

Filename D:\#New wav + flac\Imagine Dragons – Origins {Deluxe Edition}\07. Imagine Dragons – Zero (from the original motion picture “Ralph Breaks the Internet”).wav

Peak level 100.0 %
Extraction speed 7.3 X
Track quality 100.0 %
Test CRC 8A3E6406
Copy CRC 8A3E6406
Accurately ripped (confidence 1) [AEDE8FE2] (AR v2)
Copy OK

Track 8

Filename D:\#New wav + flac\Imagine Dragons – Origins {Deluxe Edition}\08. Imagine Dragons – Bullet in a Gun.wav

Peak level 99.9 %
Extraction speed 6.1 X
Track quality 99.9 %
Test CRC EEB293D2
Copy CRC EEB293D2
Accurately ripped (confidence 1) [36E35426] (AR v2)
Copy OK

Track 9

Filename D:\#New wav + flac\Imagine Dragons – Origins {Deluxe Edition}\09. Imagine Dragons – Digital.wav

Peak level 99.9 %
Extraction speed 7.7 X
Track quality 100.0 %
Test CRC EAE03F73
Copy CRC EAE03F73
Accurately ripped (confidence 1) [9B220B8B] (AR v2)
Copy OK

Track 10

Filename D:\#New wav + flac\Imagine Dragons – Origins {Deluxe Edition}\10. Imagine Dragons – Only.wav

Peak level 100.0 %
Extraction speed 7.8 X
Track quality 100.0 %
Test CRC 25029FCB
Copy CRC 25029FCB
Accurately ripped (confidence 1) [5253A47B] (AR v2)
Copy OK

Track 11

Filename D:\#New wav + flac\Imagine Dragons – Origins {Deluxe Edition}\11. Imagine Dragons – Stuck.wav

Peak level 96.7 %
Extraction speed 8.2 X
Track quality 100.0 %
Test CRC 9205833C
Copy CRC 9205833C
Accurately ripped (confidence 1) [6FBB6391] (AR v2)
Copy OK

Track 12

Filename D:\#New wav + flac\Imagine Dragons – Origins {Deluxe Edition}\12. Imagine Dragons – Love.wav

Peak level 100.0 %
Extraction speed 6.2 X
Track quality 99.9 %
Test CRC B35A471E
Copy CRC B35A471E
Accurately ripped (confidence 1) [9F504754] (AR v2)
Copy OK

Track 13

Filename D:\#New wav + flac\Imagine Dragons – Origins {Deluxe Edition}\13. Imagine Dragons – Birds.wav

Peak level 100.0 %
Extraction speed 7.1 X
Track quality 99.9 %
Test CRC 28B91B80
Copy CRC 28B91B80
Accurately ripped (confidence 1) [03DC5A2A] (AR v2)
Copy OK

Track 14

Filename D:\#New wav + flac\Imagine Dragons – Origins {Deluxe Edition}\14. Imagine Dragons – Burn Out.wav

Peak level 94.7 %
Extraction speed 7.7 X
Track quality 99.9 %
Test CRC 831F0CB2
Copy CRC 831F0CB2
Accurately ripped (confidence 1) [AA21FC86] (AR v2)
Copy OK

Track 15

Filename D:\#New wav + flac\Imagine Dragons – Origins {Deluxe Edition}\15. Imagine Dragons – Real Life.wav

Peak level 94.4 %
Extraction speed 9.5 X
Track quality 100.0 %
Test CRC 72055E3F
Copy CRC 72055E3F
Accurately ripped (confidence 1) [F627B11A] (AR v2)
Copy OK

Track 16

Filename D:\#New wav + flac\Imagine Dragons – Origins {Deluxe Edition}\16. Imagine Dragons & Kygo – Born to Be Yours.wav

Peak level 94.2 %
Extraction speed 9.2 X
Track quality 100.0 %
Test CRC 9E04CF55
Copy CRC 9E04CF55
Accurately ripped (confidence 1) [0ED9DF55] (AR v2)
Copy OK

All tracks accurately ripped

No errors occurred

End of status report

—- CUETools DB Plugin V2.1.6

[CTDB TOCID: L.DWKNX_9Kt.XjOnT21aAekaCGQ-] found
Submit result: L.DWKNX_9Kt.XjOnT21aAekaCGQ- has been confirmed
Track | CTDB Status
1 | (115/116) Accurately ripped
2 | (116/116) Accurately ripped
3 | (116/116) Accurately ripped
4 | (116/116) Accurately ripped
5 | (115/116) Accurately ripped
6 | (116/116) Accurately ripped
7 | (116/116) Accurately ripped
8 | (115/116) Accurately ripped
9 | (116/116) Accurately ripped
10 | (116/116) Accurately ripped
11 | (116/116) Accurately ripped
12 | (116/116) Accurately ripped
13 | (116/116) Accurately ripped
14 | (115/116) Accurately ripped
15 | (116/116) Accurately ripped
16 | (116/116) Accurately ripped

==== Log checksum D9577CE2226A2AFF4DCC5E067298FFC0E2A61430D396997FDDDEBF838282499B ====
+
REM GENRE Other
REM DATE 2018
REM DISCID DA0D0F10
REM COMMENT “ExactAudioCopy v1.3”
CATALOG 0602577189760
PERFORMER “Imagine Dragons”
TITLE “Origins”
REM COMPOSER “”
FILE “01 Natural.flac” WAVE
TRACK 01 AUDIO
TITLE “Natural”
PERFORMER “Imagine Dragons”
REM COMPOSER “”
ISRC USUM71806694
INDEX 01 00:00:00
FILE “02 Boomerang.flac” WAVE
TRACK 02 AUDIO
TITLE “Boomerang”
PERFORMER “Imagine Dragons”
REM COMPOSER “”
ISRC USUM71816158
INDEX 01 00:00:00
FILE “03 Machine.flac” WAVE
TRACK 03 AUDIO
TITLE “Machine”
PERFORMER “Imagine Dragons”
REM COMPOSER “”
ISRC USUM71816159
INDEX 01 00:00:00
FILE “04 Cool Out.flac” WAVE
TRACK 04 AUDIO
TITLE “Cool Out”
PERFORMER “Imagine Dragons”
REM COMPOSER “”
ISRC USUM71816160
INDEX 01 00:00:00
FILE “05 Bad Liar.flac” WAVE
TRACK 05 AUDIO
TITLE “Bad Liar”
PERFORMER “Imagine Dragons”
REM COMPOSER “”
ISRC USUM71816161
INDEX 01 00:00:00
FILE “06 West Coast.flac” WAVE
TRACK 06 AUDIO
TITLE “West Coast”
PERFORMER “Imagine Dragons”
REM COMPOSER “”
ISRC USUM71816162
INDEX 01 00:00:00
FILE “07 Zero.flac” WAVE
TRACK 07 AUDIO
TITLE “Zero (from the original motion picture “Ralph Breaks the Internet”)”
PERFORMER “Imagine Dragons”
REM COMPOSER “”
ISRC USWD11890242
INDEX 01 00:00:00
FILE “08 Bullet in a Gun.flac” WAVE
TRACK 08 AUDIO
TITLE “Bullet in a Gun”
PERFORMER “Imagine Dragons”
REM COMPOSER “”
ISRC USUM71816163
INDEX 01 00:00:00
FILE “09 Digital.flac” WAVE
TRACK 09 AUDIO
TITLE “Digital”
PERFORMER “Imagine Dragons”
REM COMPOSER “”
ISRC USUM71816164
INDEX 01 00:00:00
FILE “10 Only.flac” WAVE
TRACK 10 AUDIO
TITLE “Only”
PERFORMER “Imagine Dragons”
REM COMPOSER “”
ISRC USUM71816165
INDEX 01 00:00:00
FILE “11 Stuck.flac” WAVE
TRACK 11 AUDIO
TITLE “Stuck”
PERFORMER “Imagine Dragons”
REM COMPOSER “”
ISRC USUM71816166
INDEX 01 00:00:00
FILE “12 Love.flac” WAVE
TRACK 12 AUDIO
TITLE “Love”
PERFORMER “Imagine Dragons”
REM COMPOSER “”
ISRC USUM71816167
INDEX 01 00:00:00
FILE “13 Birds.flac” WAVE
TRACK 13 AUDIO
TITLE “Birds”
PERFORMER “Imagine Dragons”
REM COMPOSER “”
ISRC USUM71816168
INDEX 01 00:00:00
FILE “14 Burn Out.flac” WAVE
TRACK 14 AUDIO
TITLE “Burn Out”
PERFORMER “Imagine Dragons”
REM COMPOSER “”
ISRC USUM71816169
INDEX 01 00:00:00
FILE “15 Real Life.flac” WAVE
TRACK 15 AUDIO
TITLE “Real Life”
PERFORMER “Imagine Dragons”
REM COMPOSER “”
ISRC USUM71816170
INDEX 01 00:00:00
FILE “16 Born to Be Yours.flac” WAVE
TRACK 16 AUDIO
TITLE “Born to Be Yours”
PERFORMER “Imagine Dragons & Kygo”
REM COMPOSER “”
ISRC SEBGA1802355
INDEX 01 00:00:00


Spread the Download

Leave a Reply

Your email address will not be published. Required fields are marked *

Enter the text from the image below
 

This site uses Akismet to reduce spam. Learn how your comment data is processed.