Imagine Dragons – Night Visions (Deluxe Edition)




[Total: 0    Average: 0/5]

Artist: Imagine Dragons
Year: 2012/2013
Genre: Rock
Notes: Discogs
Add. Notes: Deluxe Edition
Cover incl.: Yes
Encoder: FLAC
Bitrate: (44.1 kHz/16 Bit/s)
Log & Cue incl.: Yes
Size: 547,46 MB
Password: “slam” (without ” “)


All Downloads/Hosters are compatible

Download 1
Share-online.biz
KatFile.com
Rapidgator.net
Mexa.sh
Download 2
Share-online.biz
KatFile.com
Rapidgator.net
Mexa.sh

Tracklist:

1 - Radioactive - 3:07
2 - Tiptoe - 3:14
3 - It's Time - 4:00
4 - Demons - 2:58
5 - On Top Of The World - 3:12
6 - Amsterdam - 4:01
7 - Hear Me - 3:55
8 - Every Night - 3:37
9 - Bleeding Out - 3:43
10 - Underdog - 3:29
11 - Nothing Left To Say / Rocks - 8:58
12 - Cha-Ching (Till We Grow Older) - 4:11
13 - Working Man - 3:59
14 - My Fault - 2:56
15 - Round And Round - 3:18
16 - The River - 3:25
17 - America - 4:33
18 - Selene - 4:01
19 - Cover Up - 4:19
20 - I Don't Mind - 3:18

EAC-Log, CUE-Sheed & NFO:

Click to open spoiler
Exact Audio Copy V1.0 beta 4 from 7. December 2014

EAC extraction logfile from 2. April 2015, 2:36

Imagine Dragons / Night Visions

Used drive : HL-DT-STDVDRAM GH22NS50 Adapter: 1 ID: 0

Read mode : Secure
Utilize accurate stream : Yes
Defeat audio cache : Yes
Make use of C2 pointers : No

Read offset correction : 667
Overread into Lead-In and Lead-Out : No
Fill up missing offset samples with silence : Yes
Delete leading and trailing silent blocks : No
Null samples used in CRC calculations : Yes
Used interface : Native Win32 interface for Win NT & 2000
Gap handling : Appended to previous track

Used output format : User Defined Encoder
Selected bitrate : 128 kBit/s
Quality : High
Add ID3 tag : Yes
Command line compressor : C:\Program Files (x86)\Exact Audio Copy\Flac\flac.exe
Additional command line options : -V -8 -T “Date=%year%” -T “Genre=%genre%” %source%

TOC of the extracted CD

Track | Start | Length | Start sector | End sector
———————————————————
1 | 0:00.00 | 3:06.61 | 0 | 14010
2 | 3:06.61 | 3:14.15 | 14011 | 28575
3 | 6:21.01 | 4:00.23 | 28576 | 46598
4 | 10:21.24 | 2:57.38 | 46599 | 59911
5 | 13:18.62 | 3:12.21 | 59912 | 74332
6 | 16:31.08 | 4:01.32 | 74333 | 92439
7 | 20:32.40 | 3:55.29 | 92440 | 110093
8 | 24:27.69 | 3:37.26 | 110094 | 126394
9 | 28:05.20 | 3:43.08 | 126395 | 143127
10 | 31:48.28 | 3:29.33 | 143128 | 158835
11 | 35:17.61 | 8:57.06 | 158836 | 199116
12 | 44:14.67 | 4:09.35 | 199117 | 217826
13 | 48:24.27 | 3:55.06 | 217827 | 235457
14 | 52:19.33 | 2:56.19 | 235458 | 248676
15 | 55:15.52 | 3:18.14 | 248677 | 263540
16 | 58:33.66 | 3:24.62 | 263541 | 278902
17 | 61:58.53 | 4:33.33 | 278903 | 299410
18 | 66:32.11 | 4:00.53 | 299411 | 317463
19 | 70:32.64 | 4:19.02 | 317464 | 336890
20 | 74:51.66 | 3:18.13 | 336891 | 351753

Track 1

Filename D:\!рипы\01 Radioactive.wav

Pre-gap length 0:00:02.00

Peak level 94.4 %
Extraction speed 1.1 X
Track quality 100.0 %
Test CRC AECD2804
Copy CRC AECD2804
Copy OK

Track 2

Filename D:\!рипы\02 Tiptoe.wav

Peak level 96.6 %
Extraction speed 1.0 X
Track quality 99.9 %
Test CRC 8C1D687D
Copy CRC 8C1D687D
Copy OK

Track 3

Filename D:\!рипы\03 It’s Time.wav

Pre-gap length 0:00:01.15

Peak level 96.6 %
Extraction speed 1.3 X
Track quality 100.0 %
Test CRC 94801AAD
Copy CRC 94801AAD
Copy OK

Track 4

Filename D:\!рипы\04 Demons.wav

Pre-gap length 0:00:02.24

Peak level 100.0 %
Extraction speed 1.3 X
Track quality 100.0 %
Test CRC C943F415
Copy CRC C943F415
Copy OK

Track 5

Filename D:\!рипы\05 On Top of the World.wav

Pre-gap length 0:00:02.23

Peak level 96.6 %
Extraction speed 1.5 X
Track quality 100.0 %
Test CRC B20233FB
Copy CRC B20233FB
Copy OK

Track 6

Filename D:\!рипы\06 Amsterdam.wav

Pre-gap length 0:00:02.33

Peak level 96.6 %
Extraction speed 1.6 X
Track quality 100.0 %
Test CRC 46DB8A95
Copy CRC 46DB8A95
Copy OK

Track 7

Filename D:\!рипы\07 Hear Me.wav

Peak level 96.6 %
Extraction speed 1.4 X
Track quality 99.9 %
Test CRC E7EB8AB4
Copy CRC E7EB8AB4
Copy OK

Track 8

Filename D:\!рипы\08 Every Night.wav

Pre-gap length 0:00:03.11

Peak level 96.6 %
Extraction speed 1.7 X
Track quality 100.0 %
Test CRC 315572B1
Copy CRC 315572B1
Copy OK

Track 9

Filename D:\!рипы\09 Bleeding Out.wav

Pre-gap length 0:00:01.61

Peak level 100.0 %
Extraction speed 1.5 X
Track quality 99.9 %
Test CRC CF4074C2
Copy CRC CF4074C2
Copy OK

Track 10

Filename D:\!рипы\10 Underdog.wav

Pre-gap length 0:00:02.04

Peak level 94.0 %
Extraction speed 1.8 X
Track quality 100.0 %
Test CRC 0AD79665
Copy CRC 0AD79665
Copy OK

Track 11

Filename D:\!рипы\11 Nothing Left to Say , Rocks.wav

Pre-gap length 0:00:02.55

Peak level 100.0 %
Extraction speed 2.1 X
Track quality 100.0 %
Test CRC 3CBB1E1C
Copy CRC 3CBB1E1C
Copy OK

Track 12

Filename D:\!рипы\12 Cha-Ching (Till We Grow Older).wav

Pre-gap length 0:00:01.02

Peak level 96.6 %
Extraction speed 2.1 X
Track quality 100.0 %
Test CRC 3B58EDA1
Copy CRC 3B58EDA1
Copy OK

Track 13

Filename D:\!рипы\13 Working Man.wav

Peak level 96.6 %
Extraction speed 2.2 X
Track quality 100.0 %
Test CRC AAB9AF6D
Copy CRC AAB9AF6D
Copy OK

Track 14

Filename D:\!рипы\14 My Fault.wav

Peak level 96.6 %
Extraction speed 1.8 X
Track quality 99.9 %
Test CRC 4396EA1E
Copy CRC 4396EA1E
Copy OK

Track 15

Filename D:\!рипы\15 Round and Round.wav

Pre-gap length 0:00:00.69

Peak level 96.6 %
Extraction speed 1.9 X
Track quality 99.9 %
Test CRC 8445206F
Copy CRC 8445206F
Copy OK

Track 16

Filename D:\!рипы\16 The River.wav

Pre-gap length 0:00:01.19

Peak level 96.6 %
Extraction speed 1.9 X
Track quality 99.9 %
Test CRC 82360DA9
Copy CRC 82360DA9
Copy OK

Track 17

Filename D:\!рипы\17 America.wav

Pre-gap length 0:00:00.60

Peak level 96.6 %
Extraction speed 2.4 X
Track quality 100.0 %
Test CRC 0928B2C4
Copy CRC 0928B2C4
Copy OK

Track 18

Filename D:\!рипы\18 Selene.wav

Pre-gap length 0:00:00.57

Peak level 96.6 %
Extraction speed 2.1 X
Track quality 99.9 %
Test CRC 562FBBBE
Copy CRC 562FBBBE
Copy OK

Track 19

Filename D:\!рипы\19 Cover Up.wav

Pre-gap length 0:00:00.67

Peak level 99.9 %
Extraction speed 2.6 X
Track quality 100.0 %
Test CRC DD789AF1
Copy CRC DD789AF1
Copy OK

Track 20

Filename D:\!рипы\20 I Don’t Mind.wav

Pre-gap length 0:00:00.35

Peak level 96.6 %
Extraction speed 2.5 X
Track quality 100.0 %
Test CRC 27BCD854
Copy CRC 27BCD854
Copy OK

No errors occurred

End of status report

==== Log checksum E4E9EBF39D3CBDD5C301253BAFB0C599F6A570F1C0049C0D0DEDCB0B45A5D316 ====

REM GENRE Rock
REM DATE 2012
REM DISCID 25125214
REM COMMENT “ExactAudioCopy v1.0b4”
PERFORMER “Imagine Dragons”
TITLE “Night Visions”
FILE “01 Radioactive.flac” WAVE
TRACK 01 AUDIO
TITLE “Radioactive”
PERFORMER “Imagine Dragons”
INDEX 01 00:00:00
FILE “02 Tiptoe.flac” WAVE
TRACK 02 AUDIO
TITLE “Tiptoe”
PERFORMER “Imagine Dragons”
INDEX 01 00:00:00
TRACK 03 AUDIO
TITLE “It’s Time”
PERFORMER “Imagine Dragons”
INDEX 00 03:13:00
FILE “03 It’s Time.flac” WAVE
INDEX 01 00:00:00
TRACK 04 AUDIO
TITLE “Demons”
PERFORMER “Imagine Dragons”
INDEX 00 03:57:74
FILE “04 Demons.flac” WAVE
INDEX 01 00:00:00
TRACK 05 AUDIO
TITLE “On Top of the World”
PERFORMER “Imagine Dragons”
INDEX 00 02:55:15
FILE “05 On Top of the World.flac” WAVE
INDEX 01 00:00:00
TRACK 06 AUDIO
TITLE “Amsterdam”
PERFORMER “Imagine Dragons”
INDEX 00 03:09:63
FILE “06 Amsterdam.flac” WAVE
INDEX 01 00:00:00
FILE “07 Hear Me.flac” WAVE
TRACK 07 AUDIO
TITLE “Hear Me”
PERFORMER “Imagine Dragons”
INDEX 01 00:00:00
TRACK 08 AUDIO
TITLE “Every Night”
PERFORMER “Imagine Dragons”
INDEX 00 03:52:18
FILE “08 Every Night.flac” WAVE
INDEX 01 00:00:00
TRACK 09 AUDIO
TITLE “Bleeding Out”
PERFORMER “Imagine Dragons”
INDEX 00 03:35:40
FILE “09 Bleeding Out.flac” WAVE
INDEX 01 00:00:00
TRACK 10 AUDIO
TITLE “Underdog”
PERFORMER “Imagine Dragons”
INDEX 00 03:41:04
FILE “10 Underdog.flac” WAVE
INDEX 01 00:00:00
TRACK 11 AUDIO
TITLE “Nothing Left to Say / Rocks”
PERFORMER “Imagine Dragons”
INDEX 00 03:26:53
FILE “11 Nothing Left to Say, Rocks.flac” WAVE
INDEX 01 00:00:00
TRACK 12 AUDIO
TITLE “Cha-Ching (Till We Grow Older)”
PERFORMER “Imagine Dragons”
INDEX 00 08:56:04
FILE “12 Cha-Ching (Till We Grow Older).flac” WAVE
INDEX 01 00:00:00
FILE “13 Working Man.flac” WAVE
TRACK 13 AUDIO
TITLE “Working Man”
PERFORMER “Imagine Dragons”
INDEX 01 00:00:00
FILE “14 My Fault.flac” WAVE
TRACK 14 AUDIO
TITLE “My Fault”
PERFORMER “Imagine Dragons”
INDEX 01 00:00:00
TRACK 15 AUDIO
TITLE “Round and Round”
PERFORMER “Imagine Dragons”
INDEX 00 02:55:25
FILE “15 Round and Round.flac” WAVE
INDEX 01 00:00:00
TRACK 16 AUDIO
TITLE “The River”
PERFORMER “Imagine Dragons”
INDEX 00 03:16:70
FILE “16 The River.flac” WAVE
INDEX 01 00:00:00
TRACK 17 AUDIO
TITLE “America”
PERFORMER “Imagine Dragons”
INDEX 00 03:24:02
FILE “17 America.flac” WAVE
INDEX 01 00:00:00
TRACK 18 AUDIO
TITLE “Selene”
PERFORMER “Imagine Dragons”
INDEX 00 04:32:51
FILE “18 Selene.flac” WAVE
INDEX 01 00:00:00
TRACK 19 AUDIO
TITLE “Cover Up”
PERFORMER “Imagine Dragons”
INDEX 00 03:59:61
FILE “19 Cover Up.flac” WAVE
INDEX 01 00:00:00
TRACK 20 AUDIO
TITLE “I Don’t Mind”
PERFORMER “Imagine Dragons”
INDEX 00 04:18:42
FILE “20 I Don’t Mind.flac” WAVE
INDEX 01 00:00:00


Spread the Download

Leave a Reply

Your email address will not be published. Required fields are marked *

Enter the text from the image below
 

This site uses Akismet to reduce spam. Learn how your comment data is processed.