Imagine Dragons – Evolve (Deluxe Edition)




Artist: Imagine Dragons
Year: 2017
Genre: Rock
Notes: Discogs
Add. Notes: Deluxe Edition
Cover incl.: Yes
Encoder: FLAC
Bitrate: ~900 kBit/s (44.1 kHz/16 Bit/s)
Log & Cue incl.: Yes
Size: 339,7 MB
Password: “slam” (without ” “)


All Downloads/Hosters are compatible

Download 1
KatFile.com
Turbobit.net
FileFactory.com
Rapidgator.net
Download 2
KatFile.com
Turbobit.net
FileFactory.com
Rapidgator.net

Tracklist:

1 I Don't Know Why 3:10
2 Whatever It Takes 3:21
3 Believer 3:24
4 Walking The Wire 3:52
5 Rise Up 3:51
6 I'll Make It Up To You 4:22
7 Yesterday 3:25
8 Mouth Of The River 3:41
9 Thunder 3:07
10 Start Over 3:06
11 Dancing In The Dark 3:53
Bonus Tracks
12 Levitate 3:18
13 Not Today 4:21
14 Believer (Kaskade Remix) 3:11

EAC-Log, CUE-Sheed & NFO:

Click to open spoiler
Exact Audio Copy V1.3 from 2. September 2016

EAC extraction logfile from 27. June 2017, 11:00

Imagine Dragons / Evolve

Used drive : HL-DT-STDVDRAM GH24NSD1 Adapter: 1 ID: 0

Read mode : Secure
Utilize accurate stream : Yes
Defeat audio cache : Yes
Make use of C2 pointers : No

Read offset correction : 6
Overread into Lead-In and Lead-Out : No
Fill up missing offset samples with silence : Yes
Delete leading and trailing silent blocks : No
Null samples used in CRC calculations : Yes
Used interface : Native Win32 interface for Win NT & 2000
Gap handling : Appended to previous track

Used output format : User Defined Encoder
Selected bitrate : 1024 kBit/s
Quality : High
Add ID3 tag : No
Command line compressor : C:\Program Files (x86)\Exact Audio Copy\Flac\flac.exe
Additional command line options : -8 -e -p -V -T “ARTIST=%artist%” -T “TITLE=%title%” -T “ALBUM=%albumtitle%” -T “DATE=%year%” -T “TRACKNUMBER=%tracknr%” -T “GENRE=%genre%” -T “PERFORMER=%albuminterpret%” -T “COMPOSER=%composer%” %haslyrics%–tag-from-file=LYRICS=”%lyricsfile%”%haslyrics% -T “ALBUMARTIST=%albumartist%” -T “DISCNUMBER=%cdnumber%” -T “TOTALDISCS=%totalcds%” -T “TOTALTRACKS=%numtracks%” -T “COMMENT=%comment%” %source% -o %dest%

TOC of the extracted CD

Track | Start | Length | Start sector | End sector
———————————————————
1 | 0:00.00 | 3:10.09 | 0 | 14258
2 | 3:10.09 | 3:21.18 | 14259 | 29351
3 | 6:31.27 | 3:24.26 | 29352 | 44677
4 | 9:55.53 | 3:52.68 | 44678 | 62145
5 | 13:48.46 | 3:51.54 | 62146 | 79524
6 | 17:40.25 | 4:22.45 | 79525 | 99219
7 | 22:02.70 | 3:25.09 | 99220 | 114603
8 | 25:28.04 | 3:41.42 | 114604 | 131220
9 | 29:09.46 | 3:07.11 | 131221 | 145256
10 | 32:16.57 | 3:06.06 | 145257 | 159212
11 | 35:22.63 | 3:55.32 | 159213 | 176869
12 | 39:18.20 | 3:18.13 | 176870 | 191732
13 | 42:36.33 | 4:20.47 | 191733 | 211279
14 | 46:57.05 | 3:10.67 | 211280 | 225596

Track 1

Filename D:\Incoming\Extraction\01 – I Don’t Know Why.wav

Pre-gap length 0:00:02.00

Peak level 99.8 %
Extraction speed 4.5 X
Track quality 100.0 %
Test CRC D7E54400
Copy CRC D7E54400
Track not present in AccurateRip database
Copy OK

Track 2

Filename D:\Incoming\Extraction\02 – Whatever It Takes.wav

Peak level 99.8 %
Extraction speed 4.9 X
Track quality 100.0 %
Test CRC F68E3CAF
Copy CRC F68E3CAF
Track not present in AccurateRip database
Copy OK

Track 3

Filename D:\Incoming\Extraction\03 – Believer.wav

Peak level 99.8 %
Extraction speed 5.2 X
Track quality 100.0 %
Test CRC 6FF9479A
Copy CRC 6FF9479A
Track not present in AccurateRip database
Copy OK

Track 4

Filename D:\Incoming\Extraction\04 – Walking the Wire.wav

Peak level 99.8 %
Extraction speed 5.6 X
Track quality 100.0 %
Test CRC D63291FC
Copy CRC D63291FC
Track not present in AccurateRip database
Copy OK

Track 5

Filename D:\Incoming\Extraction\05 – Rise Up.wav

Peak level 99.8 %
Extraction speed 5.3 X
Track quality 99.9 %
Test CRC CE584470
Copy CRC CE584470
Track not present in AccurateRip database
Copy OK

Track 6

Filename D:\Incoming\Extraction\06 – I’ll Make It Up to You.wav

Peak level 94.4 %
Extraction speed 5.8 X
Track quality 99.9 %
Test CRC B66282EB
Copy CRC B66282EB
Track not present in AccurateRip database
Copy OK

Track 7

Filename D:\Incoming\Extraction\07 – Yesterday.wav

Peak level 99.8 %
Extraction speed 6.6 X
Track quality 100.0 %
Test CRC 7B382CDD
Copy CRC 7B382CDD
Track not present in AccurateRip database
Copy OK

Track 8

Filename D:\Incoming\Extraction\08 – Mouth of the River.wav

Peak level 98.9 %
Extraction speed 6.9 X
Track quality 100.0 %
Test CRC A346D632
Copy CRC A346D632
Track not present in AccurateRip database
Copy OK

Track 9

Filename D:\Incoming\Extraction\09 – Thunder.wav

Peak level 89.9 %
Extraction speed 6.8 X
Track quality 100.0 %
Test CRC 903C072A
Copy CRC 903C072A
Track not present in AccurateRip database
Copy OK

Track 10

Filename D:\Incoming\Extraction\10 – Start Over.wav

Peak level 99.8 %
Extraction speed 7.1 X
Track quality 100.0 %
Test CRC A459CEDC
Copy CRC A459CEDC
Track not present in AccurateRip database
Copy OK

Track 11

Filename D:\Incoming\Extraction\11 – Dancing in the Dark.wav

Peak level 89.3 %
Extraction speed 7.4 X
Track quality 100.0 %
Test CRC 12E36181
Copy CRC 12E36181
Track not present in AccurateRip database
Copy OK

Track 12

Filename D:\Incoming\Extraction\12 – Levitate.wav

Peak level 100.0 %
Extraction speed 6.5 X
Track quality 99.9 %
Test CRC D38DEDAB
Copy CRC D38DEDAB
Track not present in AccurateRip database
Copy OK

Track 13

Filename D:\Incoming\Extraction\13 – Not Today.wav

Peak level 94.3 %
Extraction speed 7.1 X
Track quality 99.9 %
Test CRC FF351153
Copy CRC FF351153
Track not present in AccurateRip database
Copy OK

Track 14

Filename D:\Incoming\Extraction\14 – Believer (Kaskade Remix).wav

Peak level 100.0 %
Extraction speed 6.7 X
Track quality 99.9 %
Test CRC B2ADC8F7
Copy CRC B2ADC8F7
Track not present in AccurateRip database
Copy OK

None of the tracks are present in the AccurateRip database

No errors occurred

End of status report

—- CUETools DB Plugin V2.1.6

[CTDB TOCID: 1aSrdTBOaKPUnApgUjgk4N98EEU-] found
Submit result: 1aSrdTBOaKPUnApgUjgk4N98EEU- has been confirmed
Track | CTDB Status
1 | (18/18) Accurately ripped
2 | (18/18) Accurately ripped
3 | (18/18) Accurately ripped
4 | (18/18) Accurately ripped
5 | (18/18) Accurately ripped
6 | (18/18) Accurately ripped
7 | (17/18) Accurately ripped
8 | (17/18) Accurately ripped
9 | (17/18) Accurately ripped
10 | (17/18) Accurately ripped
11 | (17/18) Accurately ripped
12 | (17/18) Accurately ripped
13 | (17/18) Accurately ripped
14 | (17/18) Accurately ripped

==== Log checksum AD29E035159458327FA61F3B90EE669AADF9F9A7E1EC60B65319DB8557A95BC7 ====

REM DATE 2017
REM DISCID B80BBF0E
PERFORMER “Imagine Dragons”
TITLE “Evolve (Deluxe Edition)”
REM COMPOSER “”
REM DISCNUMBER 1
REM TOTALDISCS 1
FILE “01 I Don’t Know Why.flac” WAVE
TRACK 01 AUDIO
TITLE “I Don’t Know Why”
PERFORMER “Imagine Dragons”
REM COMPOSER “”
INDEX 01 00:00:00
FILE “02 Whatever It Takes.flac” WAVE
TRACK 02 AUDIO
TITLE “Whatever It Takes”
PERFORMER “Imagine Dragons”
REM COMPOSER “”
INDEX 01 00:00:00
FILE “03 Believer.flac” WAVE
TRACK 03 AUDIO
TITLE “Believer”
PERFORMER “Imagine Dragons”
REM COMPOSER “”
INDEX 01 00:00:00
FILE “04 Walking the Wire.flac” WAVE
TRACK 04 AUDIO
TITLE “Walking the Wire”
PERFORMER “Imagine Dragons”
REM COMPOSER “”
INDEX 01 00:00:00
FILE “05 Rise Up.flac” WAVE
TRACK 05 AUDIO
TITLE “Rise Up”
PERFORMER “Imagine Dragons”
REM COMPOSER “”
INDEX 01 00:00:00
FILE “06 I’ll Make It Up to You.flac” WAVE
TRACK 06 AUDIO
TITLE “I’ll Make It Up to You”
PERFORMER “Imagine Dragons”
REM COMPOSER “”
INDEX 01 00:00:00
FILE “07 Yesterday.flac” WAVE
TRACK 07 AUDIO
TITLE “Yesterday”
PERFORMER “Imagine Dragons”
REM COMPOSER “”
INDEX 01 00:00:00
FILE “08 Mouth of the River.flac” WAVE
TRACK 08 AUDIO
TITLE “Mouth of the River”
PERFORMER “Imagine Dragons”
REM COMPOSER “”
INDEX 01 00:00:00
FILE “09 Thunder.flac” WAVE
TRACK 09 AUDIO
TITLE “Thunder”
PERFORMER “Imagine Dragons”
REM COMPOSER “”
INDEX 01 00:00:00
FILE “10 Start Over.flac” WAVE
TRACK 10 AUDIO
TITLE “Start Over”
PERFORMER “Imagine Dragons”
REM COMPOSER “”
INDEX 01 00:00:00
FILE “11 Dancing in the Dark.flac” WAVE
TRACK 11 AUDIO
TITLE “Dancing in the Dark”
PERFORMER “Imagine Dragons”
REM COMPOSER “”
INDEX 01 00:00:00
FILE “12 Levitate.flac” WAVE
TRACK 12 AUDIO
TITLE “Levitate”
PERFORMER “Imagine Dragons”
REM COMPOSER “”
INDEX 01 00:00:00
FILE “13 Not Today.flac” WAVE
TRACK 13 AUDIO
TITLE “Not Today”
PERFORMER “Imagine Dragons”
REM COMPOSER “”
INDEX 01 00:00:00
FILE “14 Believer (Kaskade Remix).flac” WAVE
TRACK 14 AUDIO
TITLE “Believer (Kaskade Remix)”
PERFORMER “Imagine Dragons”
REM COMPOSER “”
INDEX 01 00:00:00


Leave a Reply

Your email address will not be published. Required fields are marked *

This site uses Akismet to reduce spam. Learn how your comment data is processed.