Iggy And The Stooges – Telluric Chaos




Artist: Iggy And The Stooges
Year: 2004
Genre: Punk
Notes: Discogs
Add. Notes:
Encoder: FLAC
Bitrate: ~1000 kBit/s (44.1 kHz/16 Bit/s)
Bin/Cue incl.: Yes
Size: 575,91 MB
Password: “slam” (without ” “)


http://www.share-online.biz/dl/FAPAEVRPR9
http://www.share-online.biz/dl/DV9AEVRPCD15

https://rapidgator.net/file/13c1783dda0a787720f75953314062bf
https://rapidgator.net/file/9bf07e9382fc894d389dd42a511cd227

https://uploadbyte.com/7nyx1uxi49ja
https://uploadbyte.com/uj2s0i7ex0r5

https://uploadever.com/06a1gt7jq9sl
https://uploadever.com/b5dzaqye4904

https://justupload.io/dpcwm1njf42y
https://justupload.io/mom158uvx7kn

Tracklist:

1 - Loose - 3:56
2 - Down On The Street - 4:23
3 - 1969 - 3:40
4 - I Wanna Be Your Dog - 5:37
5 - TV Eyes - 5:11
6 - Dirt - 3:52
7 - Real Cool Time - 3:08
8 - No Fun - 4:12
9 - 1970 - 6:14
10 - Fun House - 7:19
11 - Skull Ring - 5:07
12 - Rock Star - 4:18
13 - Electric Chair (Encore) - 5:16
14 - Little Doll - 5:07
15 - Idea Of Fun - 5:04
16 - I Wanna Be Your Dog - 3:50
17 - Not Right - 3:07

EAC-Log, CUE-Sheed & NFO:

Click to open spoiler
Exact Audio Copy V1.1 from 23. June 2015

EAC extraction logfile from 27. August 2017, 18:05

Iggy And The Stooges / Telluric Chaos [SK 2005-3]

Used drive : HL-DT-STDVDRAM GH24NSD0 Adapter: 1 ID: 0

Read mode : Secure
Utilize accurate stream : Yes
Defeat audio cache : Yes
Make use of C2 pointers : No

Read offset correction : 6
Overread into Lead-In and Lead-Out : No
Fill up missing offset samples with silence : Yes
Delete leading and trailing silent blocks : No
Null samples used in CRC calculations : Yes
Used interface : Native Win32 interface for Win NT & 2000
Gap handling : Appended to previous track

Used output format : User Defined Encoder
Selected bitrate : 768 kBit/s
Quality : High
Add ID3 tag : No
Command line compressor : C:\Program Files (x86)\Exact Audio Copy\FLAC\FLAC.EXE
Additional command line options : -V -8 -T “Genre=%genre%” -T “Artist=%artist%” -T “Title=%title%” -T “Album=%albumtitle%” -T “Date=%year%” -T “Tracknumber=%tracknr%” -T “Comment=%comment%” %source%

TOC of the extracted CD

Track | Start | Length | Start sector | End sector
———————————————————
1 | 0:00.00 | 3:56.24 | 0 | 17723
2 | 3:56.24 | 4:23.03 | 17724 | 37451
3 | 8:19.27 | 3:40.70 | 37452 | 54021
4 | 12:00.22 | 5:37.04 | 54022 | 79300
5 | 17:37.26 | 5:11.01 | 79301 | 102626
6 | 22:48.27 | 3:52.70 | 102627 | 120096
7 | 26:41.22 | 3:08.08 | 120097 | 134204
8 | 29:49.30 | 4:12.66 | 134205 | 153170
9 | 34:02.21 | 6:14.06 | 153171 | 181226
10 | 40:16.27 | 7:19.71 | 181227 | 214222
11 | 47:36.23 | 5:07.73 | 214223 | 237320
12 | 52:44.21 | 4:18.09 | 237321 | 256679
13 | 57:02.30 | 5:16.66 | 256680 | 280445
14 | 62:19.21 | 5:07.06 | 280446 | 303476
15 | 67:26.27 | 5:04.70 | 303477 | 326346
16 | 72:31.22 | 3:50.03 | 326347 | 343599
17 | 76:21.25 | 3:07.28 | 343600 | 357652

Track 1

Filename D:\g.y.m\Stooges, The\2005. Telluric Chaos [SK 2005-3]\01. Loose.wav

Pre-gap length 0:00:02.00

Peak level 99.0 %
Extraction speed 4.8 X
Track quality 100.0 %
Test CRC 80866F11
Copy CRC 80866F11
Accurately ripped (confidence 8) [4E9948B7] (AR v2)
Copy OK

Track 2

Filename D:\g.y.m\Stooges, The\2005. Telluric Chaos [SK 2005-3]\02. Down On The Street.wav

Peak level 99.0 %
Extraction speed 5.3 X
Track quality 100.0 %
Test CRC E0BD98E7
Copy CRC E0BD98E7
Accurately ripped (confidence 8) [4CC38958] (AR v2)
Copy OK

Track 3

Filename D:\g.y.m\Stooges, The\2005. Telluric Chaos [SK 2005-3]\03. 1969.wav

Peak level 99.0 %
Extraction speed 5.6 X
Track quality 100.0 %
Test CRC 4F2EDB61
Copy CRC 4F2EDB61
Accurately ripped (confidence 8) [0EE62E9E] (AR v2)
Copy OK

Track 4

Filename D:\g.y.m\Stooges, The\2005. Telluric Chaos [SK 2005-3]\04. I Wanna Be Your Dog.wav

Peak level 99.0 %
Extraction speed 6.4 X
Track quality 100.0 %
Test CRC F5DAF234
Copy CRC F5DAF234
Accurately ripped (confidence 8) [987EF930] (AR v2)
Copy OK

Track 5

Filename D:\g.y.m\Stooges, The\2005. Telluric Chaos [SK 2005-3]\05. TV Eyes.wav

Peak level 99.0 %
Extraction speed 6.8 X
Track quality 100.0 %
Test CRC BA337ABC
Copy CRC BA337ABC
Accurately ripped (confidence 8) [C59AC1E8] (AR v2)
Copy OK

Track 6

Filename D:\g.y.m\Stooges, The\2005. Telluric Chaos [SK 2005-3]\06. Dirt.wav

Peak level 99.0 %
Extraction speed 6.9 X
Track quality 100.0 %
Test CRC C3BE62B9
Copy CRC C3BE62B9
Accurately ripped (confidence 8) [97A5416F] (AR v2)
Copy OK

Track 7

Filename D:\g.y.m\Stooges, The\2005. Telluric Chaos [SK 2005-3]\07. Real Cool Time.wav

Peak level 99.0 %
Extraction speed 6.9 X
Track quality 100.0 %
Test CRC 4D65614B
Copy CRC 4D65614B
Accurately ripped (confidence 8) [EBB6B3EA] (AR v2)
Copy OK

Track 8

Filename D:\g.y.m\Stooges, The\2005. Telluric Chaos [SK 2005-3]\08. No Fun.wav

Peak level 99.0 %
Extraction speed 7.5 X
Track quality 100.0 %
Test CRC 9D6F5DC4
Copy CRC 9D6F5DC4
Accurately ripped (confidence 8) [BD322656] (AR v2)
Copy OK

Track 9

Filename D:\g.y.m\Stooges, The\2005. Telluric Chaos [SK 2005-3]\09. 1970.wav

Peak level 99.0 %
Extraction speed 8.2 X
Track quality 100.0 %
Test CRC C5F8A334
Copy CRC C5F8A334
Accurately ripped (confidence 8) [0E24B69B] (AR v2)
Copy OK

Track 10

Filename D:\g.y.m\Stooges, The\2005. Telluric Chaos [SK 2005-3]\10. Fun House.wav

Peak level 99.0 %
Extraction speed 8.8 X
Track quality 100.0 %
Test CRC 1AEEA3A3
Copy CRC 1AEEA3A3
Accurately ripped (confidence 8) [FDA61BB6] (AR v2)
Copy OK

Track 11

Filename D:\g.y.m\Stooges, The\2005. Telluric Chaos [SK 2005-3]\11. Skull Ring.wav

Peak level 99.0 %
Extraction speed 8.9 X
Track quality 100.0 %
Test CRC 496D7474
Copy CRC 496D7474
Accurately ripped (confidence 8) [AA6D4D39] (AR v2)
Copy OK

Track 12

Filename D:\g.y.m\Stooges, The\2005. Telluric Chaos [SK 2005-3]\12. Rock Star.wav

Peak level 99.0 %
Extraction speed 9.0 X
Track quality 100.0 %
Test CRC BAAD6516
Copy CRC BAAD6516
Accurately ripped (confidence 8) [AADAA79D] (AR v2)
Copy OK

Track 13

Filename D:\g.y.m\Stooges, The\2005. Telluric Chaos [SK 2005-3]\13. Electric Chair (Encore).wav

Peak level 99.0 %
Extraction speed 9.5 X
Track quality 100.0 %
Test CRC DA325B1C
Copy CRC DA325B1C
Accurately ripped (confidence 7) [33AE050A] (AR v2)
Copy OK

Track 14

Filename D:\g.y.m\Stooges, The\2005. Telluric Chaos [SK 2005-3]\14. Little Doll.wav

Peak level 99.0 %
Extraction speed 6.7 X
Track quality 99.9 %
Test CRC C337FEEF
Copy CRC C337FEEF
Accurately ripped (confidence 8) [21A9F135] (AR v2)
Copy OK

Track 15

Filename D:\g.y.m\Stooges, The\2005. Telluric Chaos [SK 2005-3]\15. Idea Of Fun.wav

Peak level 99.0 %
Extraction speed 6.3 X
Track quality 100.0 %
Test CRC 5A39AAF5
Copy CRC 5A39AAF5
Accurately ripped (confidence 8) [497126D3] (AR v2)
Copy OK

Track 16

Filename D:\g.y.m\Stooges, The\2005. Telluric Chaos [SK 2005-3]\16. I Wanna Be Your Dog.wav

Peak level 99.0 %
Extraction speed 4.9 X
Track quality 99.9 %
Test CRC 1FB96F84
Copy CRC 1FB96F84
Accurately ripped (confidence 8) [E3105A1D] (AR v2)
Copy OK

Track 17

Filename D:\g.y.m\Stooges, The\2005. Telluric Chaos [SK 2005-3]\17. Not Right.wav

Peak level 99.0 %
Extraction speed 4.1 X
Track quality 100.0 %
Test CRC 9645E4A3
Copy CRC 9645E4A3
Accurately ripped (confidence 8) [0D5ACA22] (AR v2)
Copy OK

All tracks accurately ripped

No errors occurred

End of status report

==== Log checksum 9726C7E6335FA2562CC6252D0324D0B9587B7B253BE50F8329DA2751AA2A7271 ====

REM GENRE Proto-Punk
REM DATE 2005
REM DISCID E512A011
REM COMMENT “ExactAudioCopy v1.1”
PERFORMER “Iggy And The Stooges”
TITLE “Telluric Chaos [SK 2005-3]”
FILE “01. Loose.wav” WAVE
TRACK 01 AUDIO
TITLE “Loose”
PERFORMER “Iggy And The Stooges”
FLAGS DCP
INDEX 01 00:00:00
FILE “02. Down On The Street.wav” WAVE
TRACK 02 AUDIO
TITLE “Down On The Street”
PERFORMER “Iggy And The Stooges”
FLAGS DCP
INDEX 01 00:00:00
FILE “03. 1969.wav” WAVE
TRACK 03 AUDIO
TITLE “1969”
PERFORMER “Iggy And The Stooges”
FLAGS DCP
INDEX 01 00:00:00
FILE “04. I Wanna Be Your Dog.wav” WAVE
TRACK 04 AUDIO
TITLE “I Wanna Be Your Dog”
PERFORMER “Iggy And The Stooges”
FLAGS DCP
INDEX 01 00:00:00
FILE “05. TV Eyes.wav” WAVE
TRACK 05 AUDIO
TITLE “TV Eyes”
PERFORMER “Iggy And The Stooges”
FLAGS DCP
INDEX 01 00:00:00
FILE “06. Dirt.wav” WAVE
TRACK 06 AUDIO
TITLE “Dirt”
PERFORMER “Iggy And The Stooges”
FLAGS DCP
INDEX 01 00:00:00
FILE “07. Real Cool Time.wav” WAVE
TRACK 07 AUDIO
TITLE “Real Cool Time”
PERFORMER “Iggy And The Stooges”
FLAGS DCP
INDEX 01 00:00:00
FILE “08. No Fun.wav” WAVE
TRACK 08 AUDIO
TITLE “No Fun”
PERFORMER “Iggy And The Stooges”
FLAGS DCP
INDEX 01 00:00:00
FILE “09. 1970.wav” WAVE
TRACK 09 AUDIO
TITLE “1970”
PERFORMER “Iggy And The Stooges”
FLAGS DCP
INDEX 01 00:00:00
FILE “10. Fun House.wav” WAVE
TRACK 10 AUDIO
TITLE “Fun House”
PERFORMER “Iggy And The Stooges”
FLAGS DCP
INDEX 01 00:00:00
FILE “11. Skull Ring.wav” WAVE
TRACK 11 AUDIO
TITLE “Skull Ring”
PERFORMER “Iggy And The Stooges”
FLAGS DCP
INDEX 01 00:00:00
FILE “12. Rock Star.wav” WAVE
TRACK 12 AUDIO
TITLE “Rock Star”
PERFORMER “Iggy And The Stooges”
FLAGS DCP
INDEX 01 00:00:00
FILE “13. Electric Chair (Encore).wav” WAVE
TRACK 13 AUDIO
TITLE “Electric Chair (Encore)”
PERFORMER “Iggy And The Stooges”
FLAGS DCP
INDEX 01 00:00:00
FILE “14. Little Doll.wav” WAVE
TRACK 14 AUDIO
TITLE “Little Doll”
PERFORMER “Iggy And The Stooges”
FLAGS DCP
INDEX 01 00:00:00
FILE “15. Idea Of Fun.wav” WAVE
TRACK 15 AUDIO
TITLE “Idea Of Fun”
PERFORMER “Iggy And The Stooges”
FLAGS DCP
INDEX 01 00:00:00
FILE “16. I Wanna Be Your Dog.wav” WAVE
TRACK 16 AUDIO
TITLE “I Wanna Be Your Dog”
PERFORMER “Iggy And The Stooges”
FLAGS DCP
INDEX 01 00:00:00
FILE “17. Not Right.wav” WAVE
TRACK 17 AUDIO
TITLE “Not Right”
PERFORMER “Iggy And The Stooges”
FLAGS DCP
INDEX 01 00:00:00

Leave a Reply

Your email address will not be published. Required fields are marked *

This site uses Akismet to reduce spam. Learn how your comment data is processed.