Iggy And The Stooges – Ready To Die (Japanese Edition)




Artist: Iggy And The Stooges
Year: 2013
Genre: Rock
Notes: Discogs
Add. Notes: Japanese Edition
Cover incl.: Yes
Encoder: FLAC
Bitrate: ~1000 kBit/s (44.1 kHz/16 Bit/s)
Log & Cue incl.: Yes
Size: 476,87 MB
Password: “slam” (without ” “)


All Downloads/Hosters are compatible

Download 1
Turbobit.net
Rapidgator.net
UploadByte.com
UploadEver.com
JustUpload.io
Download 2
Turbobit.net
Rapidgator.net
UploadByte.com
UploadEver.com
JustUpload.io
Download 3
Turbobit.net
Rapidgator.net
UploadByte.com
UploadEver.com
JustUpload.io

Tracklist:

1 - Burn - 3:37
2 - Sex & Money - 3:18
3 - Job - 3:05
4 - Gun - 3:07
5 - Unfriendly World - 3:46
6 - Ready To Die - 3:06
7 - DD's - 3:12
8 - Dirty Deal - 3:42
9 - Beat That Guy - 3:15
10 - The Departed - 4:46
11 - Dying Breed (Japan Bonus Track) - 3:13
12 - The Departed (Instrumental Version) (Japan Bonus 
Track) - 4:37

EAC-Log, CUE-Sheed & NFO:

Click to open spoiler
Exact Audio Copy V1.1 from 23. June 2015

EAC extraction logfile from 28. July 2017, 3:39

The Stooges / Ready To Die [FP12962J]

Used drive : HL-DT-STDVDRAM GH24NSD0 Adapter: 1 ID: 0

Read mode : Secure
Utilize accurate stream : Yes
Defeat audio cache : Yes
Make use of C2 pointers : No

Read offset correction : 6
Overread into Lead-In and Lead-Out : No
Fill up missing offset samples with silence : Yes
Delete leading and trailing silent blocks : No
Null samples used in CRC calculations : Yes
Used interface : Native Win32 interface for Win NT & 2000
Gap handling : Appended to previous track

Used output format : User Defined Encoder
Selected bitrate : 768 kBit/s
Quality : High
Add ID3 tag : No
Command line compressor : C:\Program Files (x86)\Exact Audio Copy\FLAC\FLAC.EXE
Additional command line options : -V -8 -T “Genre=%genre%” -T “Artist=%artist%” -T “Title=%title%” -T “Album=%albumtitle%” -T “Date=%year%” -T “Tracknumber=%tracknr%” -T “Comment=%comment%” %source%

TOC of the extracted CD

Track | Start | Length | Start sector | End sector
———————————————————
1 | 0:00.00 | 3:37.20 | 0 | 16294
2 | 3:37.20 | 3:18.62 | 16295 | 31206
3 | 6:56.07 | 3:05.31 | 31207 | 45112
4 | 10:01.38 | 3:07.53 | 45113 | 59190
5 | 13:09.16 | 3:46.30 | 59191 | 76170
6 | 16:55.46 | 3:06.26 | 76171 | 90146
7 | 20:01.72 | 3:12.56 | 90147 | 104602
8 | 23:14.53 | 3:42.65 | 104603 | 121317
9 | 26:57.43 | 3:15.37 | 121318 | 135979
10 | 30:13.05 | 4:46.70 | 135980 | 157499
11 | 35:00.00 | 3:13.07 | 157500 | 171981
12 | 38:13.07 | 4:37.31 | 171982 | 192787

Track 1

Filename D:\g.y.m\Stooges, The\2013. Ready To Die [FP12962J]\01. Burn.wav

Pre-gap length 0:00:02.00

Peak level 100.0 %
Extraction speed 4.5 X
Track quality 100.0 %
Test CRC 958FAE26
Copy CRC 958FAE26
Accurately ripped (confidence 5) [9786B63C] (AR v2)
Copy OK

Track 2

Filename D:\g.y.m\Stooges, The\2013. Ready To Die [FP12962J]\02. Sex & Money.wav

Peak level 100.0 %
Extraction speed 4.8 X
Track quality 100.0 %
Test CRC 86E81C48
Copy CRC 86E81C48
Accurately ripped (confidence 5) [BC9F5CE7] (AR v2)
Copy OK

Track 3

Filename D:\g.y.m\Stooges, The\2013. Ready To Die [FP12962J]\03. Job.wav

Peak level 100.0 %
Extraction speed 5.1 X
Track quality 100.0 %
Test CRC 5593A189
Copy CRC 5593A189
Accurately ripped (confidence 5) [7B4EFAC9] (AR v2)
Copy OK

Track 4

Filename D:\g.y.m\Stooges, The\2013. Ready To Die [FP12962J]\04. Gun.wav

Peak level 100.0 %
Extraction speed 5.4 X
Track quality 100.0 %
Test CRC 9C8F4102
Copy CRC 9C8F4102
Accurately ripped (confidence 5) [1C288568] (AR v2)
Copy OK

Track 5

Filename D:\g.y.m\Stooges, The\2013. Ready To Die [FP12962J]\05. Unfriendly World.wav

Peak level 100.0 %
Extraction speed 5.2 X
Track quality 99.9 %
Test CRC 60CF97BC
Copy CRC 60CF97BC
Accurately ripped (confidence 5) [353B04C2] (AR v2)
Copy OK

Track 6

Filename D:\g.y.m\Stooges, The\2013. Ready To Die [FP12962J]\06. Ready To Die.wav

Peak level 100.0 %
Extraction speed 6.0 X
Track quality 100.0 %
Test CRC 8CA32F9C
Copy CRC 8CA32F9C
Accurately ripped (confidence 5) [379CD845] (AR v2)
Copy OK

Track 7

Filename D:\g.y.m\Stooges, The\2013. Ready To Die [FP12962J]\07. DD’s.wav

Peak level 100.0 %
Extraction speed 6.3 X
Track quality 100.0 %
Test CRC 1474CD6C
Copy CRC 1474CD6C
Accurately ripped (confidence 5) [F9F9A0FB] (AR v2)
Copy OK

Track 8

Filename D:\g.y.m\Stooges, The\2013. Ready To Die [FP12962J]\08. Dirty Deal.wav

Pre-gap length 0:00:00.68

Peak level 100.0 %
Extraction speed 6.7 X
Track quality 100.0 %
Test CRC C390C947
Copy CRC C390C947
Accurately ripped (confidence 5) [08B88F05] (AR v2)
Copy OK

Track 9

Filename D:\g.y.m\Stooges, The\2013. Ready To Die [FP12962J]\09. Beat That Guy.wav

Peak level 100.0 %
Extraction speed 6.9 X
Track quality 100.0 %
Test CRC 29FF8DB1
Copy CRC 29FF8DB1
Accurately ripped (confidence 5) [6F1D3413] (AR v2)
Copy OK

Track 10

Filename D:\g.y.m\Stooges, The\2013. Ready To Die [FP12962J]\10. The Departed.wav

Pre-gap length 0:00:01.27

Peak level 100.0 %
Extraction speed 7.5 X
Track quality 100.0 %
Test CRC 13EE36D5
Copy CRC 13EE36D5
Accurately ripped (confidence 5) [8259DD2A] (AR v2)
Copy OK

Track 11

Filename D:\g.y.m\Stooges, The\2013. Ready To Die [FP12962J]\11. Dying Breed.wav

Pre-gap length 0:00:09.72

Peak level 100.0 %
Extraction speed 7.4 X
Track quality 100.0 %
Test CRC 0A92BED7
Copy CRC 0A92BED7
Accurately ripped (confidence 5) [D2150986] (AR v2)
Copy OK

Track 12

Filename D:\g.y.m\Stooges, The\2013. Ready To Die [FP12962J]\12. The Departed (Instrumental Version).wav

Pre-gap length 0:00:01.00

Peak level 100.0 %
Extraction speed 8.0 X
Track quality 100.0 %
Test CRC E857C591
Copy CRC E857C591
Accurately ripped (confidence 5) [63792045] (AR v2)
Copy OK

All tracks accurately ripped

No errors occurred

End of status report

==== Log checksum CAC0B75E54FF0417A5DDF56A5E5DE9BCB2EAB5D88724324CBB3457B31C48ABC3 ====

REM GENRE Proto-Punk
REM DATE 2013
REM DISCID 8E0A0A0C
REM COMMENT “ExactAudioCopy v1.1”
PERFORMER “Iggy And The Stooges”
TITLE “Ready To Die [FP12962J]”
FILE “01. Burn.wav” WAVE
TRACK 01 AUDIO
TITLE “Burn”
PERFORMER “Iggy And The Stooges”
INDEX 01 00:00:00
FILE “02. Sex & Money.wav” WAVE
TRACK 02 AUDIO
TITLE “Sex & Money”
PERFORMER “Iggy And The Stooges”
INDEX 01 00:00:00
FILE “03. Job.wav” WAVE
TRACK 03 AUDIO
TITLE “Job”
PERFORMER “Iggy And The Stooges”
INDEX 01 00:00:00
FILE “04. Gun.wav” WAVE
TRACK 04 AUDIO
TITLE “Gun”
PERFORMER “Iggy And The Stooges”
INDEX 01 00:00:00
FILE “05. Unfriendly World.wav” WAVE
TRACK 05 AUDIO
TITLE “Unfriendly World”
PERFORMER “Iggy And The Stooges”
INDEX 01 00:00:00
FILE “06. Ready To Die.wav” WAVE
TRACK 06 AUDIO
TITLE “Ready To Die”
PERFORMER “Iggy And The Stooges”
INDEX 01 00:00:00
FILE “07. DD’s.wav” WAVE
TRACK 07 AUDIO
TITLE “DD’s”
PERFORMER “Iggy And The Stooges”
INDEX 01 00:00:00
TRACK 08 AUDIO
TITLE “Dirty Deal”
PERFORMER “Iggy And The Stooges”
INDEX 00 03:11:63
FILE “08. Dirty Deal.wav” WAVE
INDEX 01 00:00:00
FILE “09. Beat That Guy.wav” WAVE
TRACK 09 AUDIO
TITLE “Beat That Guy”
PERFORMER “Iggy And The Stooges”
INDEX 01 00:00:00
TRACK 10 AUDIO
TITLE “The Departed”
PERFORMER “Iggy And The Stooges”
INDEX 00 03:14:10
FILE “10. The Departed.wav” WAVE
INDEX 01 00:00:00
TRACK 11 AUDIO
TITLE “Dying Breed”
PERFORMER “Iggy And The Stooges”
INDEX 00 04:36:73
FILE “11. Dying Breed.wav” WAVE
INDEX 01 00:00:00
TRACK 12 AUDIO
TITLE “The Departed (Instrumental Version)”
PERFORMER “Iggy And The Stooges”
INDEX 00 03:12:07
FILE “12. The Departed (Instrumental Version).wav” WAVE
INDEX 01 00:00:00

Leave a Reply

Your email address will not be published. Required fields are marked *

Enter the text from the image below
 

This site uses Akismet to reduce spam. Learn how your comment data is processed.