Iggy And The Stooges – Raw Power (Remastered Japanese Edition)




Artist: The Stooges
Year: 1973/1997
Genre: Punk
Notes: Discogs
Add. Notes: Remastered Japanese Edition
Encoder: FLAC
Bitrate: ~1000 kBit/s (44.1 kHz/16 Bit/s)
Bin/Cue incl.: Yes
Size: 403,83 MB
Password: “slam” (without ” “)


http://www.share-online.biz/dl/BQ7NYSRPRR
https://rapidgator.net/file/7f8e5d0a8d465a4c2ed21741e8ac5285
https://uploadbyte.com/m5wa7mxlbdl4
https://justupload.io/b0m9mcgsmku5
https://uploadever.com/fs5zrjlna54w

Tracklist:

1 - Search And Destroy - 3:29
2 - Gimme Danger - 3:33
3 - Your Pretty Face Is Going To Hell - 4:54
4 - Penetration - 3:41
5 - Raw Power - 4:16
6 - I Need Somebody - 4:53
7 - Shake Appeal - 3:04
8 - Death Trip - 6:09

EAC-Log, CUE-Sheed & NFO:

Click to open spoiler
Exact Audio Copy V1.1 from 23. June 2015

EAC extraction logfile from 27. July 2017, 23:59

Iggy And The Stooges / Raw Power [1997, SRCS 8320]

Used drive : HL-DT-STDVDRAM GH24NSD0 Adapter: 1 ID: 0

Read mode : Secure
Utilize accurate stream : Yes
Defeat audio cache : Yes
Make use of C2 pointers : No

Read offset correction : 6
Overread into Lead-In and Lead-Out : No
Fill up missing offset samples with silence : Yes
Delete leading and trailing silent blocks : No
Null samples used in CRC calculations : Yes
Used interface : Native Win32 interface for Win NT & 2000
Gap handling : Appended to previous track

Used output format : User Defined Encoder
Selected bitrate : 768 kBit/s
Quality : High
Add ID3 tag : No
Command line compressor : C:\Program Files (x86)\Exact Audio Copy\FLAC\FLAC.EXE
Additional command line options : -V -8 -T “Genre=%genre%” -T “Artist=%artist%” -T “Title=%title%” -T “Album=%albumtitle%” -T “Date=%year%” -T “Tracknumber=%tracknr%” -T “Comment=%comment%” %source%

TOC of the extracted CD

Track | Start | Length | Start sector | End sector
———————————————————
1 | 0:00.00 | 3:29.34 | 0 | 15708
2 | 3:29.34 | 3:33.06 | 15709 | 31689
3 | 7:02.40 | 4:54.70 | 31690 | 53809
4 | 11:57.35 | 3:41.30 | 53810 | 70414
5 | 15:38.65 | 4:16.37 | 70415 | 89651
6 | 19:55.27 | 4:53.03 | 89652 | 111629
7 | 24:48.30 | 3:04.24 | 111630 | 125453
8 | 27:52.54 | 6:09.33 | 125454 | 153161

Track 1

Filename D:\g.y.m\Stooges, The\1973. Raw Power [1997, SRCS 8320]\01. Search And Destroy.wav

Pre-gap length 0:00:02.00

Peak level 100.0 %
Extraction speed 0.9 X
Track quality 99.9 %
Test CRC C75F9C2B
Copy CRC C75F9C2B
Accurately ripped (confidence 7) [B8C995E5] (AR v2)
Copy OK

Track 2

Filename D:\g.y.m\Stooges, The\1973. Raw Power [1997, SRCS 8320]\02. Gimme Danger.wav

Peak level 100.0 %
Extraction speed 1.1 X
Track quality 100.0 %
Test CRC 666775F0
Copy CRC 666775F0
Accurately ripped (confidence 7) [2CE3EB5B] (AR v2)
Copy OK

Track 3

Filename D:\g.y.m\Stooges, The\1973. Raw Power [1997, SRCS 8320]\03. Your Pretty Face Is Going To Hell.wav

Peak level 100.0 %
Extraction speed 1.3 X
Track quality 100.0 %
Test CRC 6B3FD80C
Copy CRC 6B3FD80C
Accurately ripped (confidence 7) [C0C0C60F] (AR v2)
Copy OK

Track 4

Filename D:\g.y.m\Stooges, The\1973. Raw Power [1997, SRCS 8320]\04. Penetration.wav

Peak level 100.0 %
Extraction speed 1.2 X
Track quality 99.9 %
Test CRC FE8191E9
Copy CRC FE8191E9
Accurately ripped (confidence 7) [F1DB2E62] (AR v2)
Copy OK

Track 5

Filename D:\g.y.m\Stooges, The\1973. Raw Power [1997, SRCS 8320]\05. Raw Power.wav

Peak level 100.0 %
Extraction speed 1.4 X
Track quality 100.0 %
Test CRC 826A91F1
Copy CRC 826A91F1
Accurately ripped (confidence 7) [9CC8CE99] (AR v2)
Copy OK

Track 6

Filename D:\g.y.m\Stooges, The\1973. Raw Power [1997, SRCS 8320]\06. I Need Somebody.wav

Peak level 100.0 %
Extraction speed 1.6 X
Track quality 100.0 %
Test CRC 23E65C49
Copy CRC 23E65C49
Accurately ripped (confidence 7) [AEE4F2CA] (AR v2)
Copy OK

Track 7

Filename D:\g.y.m\Stooges, The\1973. Raw Power [1997, SRCS 8320]\07. Shake Appeal.wav

Peak level 100.0 %
Extraction speed 1.5 X
Track quality 100.0 %
Test CRC C2829DF7
Copy CRC C2829DF7
Accurately ripped (confidence 7) [D86F2AD1] (AR v2)
Copy OK

Track 8

Filename D:\g.y.m\Stooges, The\1973. Raw Power [1997, SRCS 8320]\08. Death Trip.wav

Peak level 100.0 %
Extraction speed 1.8 X
Track quality 100.0 %
Test CRC 70E7E252
Copy CRC 70E7E252
Accurately ripped (confidence 6) [EEAD6789] (AR v2)
Copy OK

All tracks accurately ripped

No errors occurred

End of status report

==== Log checksum 48FC10E3C1A0064D07063F511D91D8ED394EB6D28A006A11E125E11A9616B92A ====

REM GENRE Proto-Punk
REM DATE 1973
REM DISCID 6007FA08
REM COMMENT “ExactAudioCopy v1.1”
PERFORMER “Iggy And The Stooges”
TITLE “Raw Power [1997, SRCS 8320]”
FILE “01. Search And Destroy.wav” WAVE
TRACK 01 AUDIO
TITLE “Search And Destroy”
PERFORMER “Iggy And The Stooges”
INDEX 01 00:00:00
FILE “02. Gimme Danger.wav” WAVE
TRACK 02 AUDIO
TITLE “Gimme Danger”
PERFORMER “Iggy And The Stooges”
INDEX 01 00:00:00
FILE “03. Your Pretty Face Is Going To Hell.wav” WAVE
TRACK 03 AUDIO
TITLE “Your Pretty Face Is Going To Hell (Originally Titled ”Hard To Beat”)”
PERFORMER “Iggy And The Stooges”
INDEX 01 00:00:00
FILE “04. Penetration.wav” WAVE
TRACK 04 AUDIO
TITLE “Penetration”
PERFORMER “Iggy And The Stooges”
INDEX 01 00:00:00
FILE “05. Raw Power.wav” WAVE
TRACK 05 AUDIO
TITLE “Raw Power”
PERFORMER “Iggy And The Stooges”
INDEX 01 00:00:00
FILE “06. I Need Somebody.wav” WAVE
TRACK 06 AUDIO
TITLE “I Need Somebody”
PERFORMER “Iggy And The Stooges”
INDEX 01 00:00:00
FILE “07. Shake Appeal.wav” WAVE
TRACK 07 AUDIO
TITLE “Shake Appeal”
PERFORMER “Iggy And The Stooges”
INDEX 01 00:00:00
FILE “08. Death Trip.wav” WAVE
TRACK 08 AUDIO
TITLE “Death Trip”
PERFORMER “Iggy And The Stooges”
INDEX 01 00:00:00

Leave a Reply

Your email address will not be published. Required fields are marked *

This site uses Akismet to reduce spam. Learn how your comment data is processed.