Iggy And The Stooges – Metallic 2×KO




Artist: Iggy And The Stooges
Year: 1976/1999
Genre: Punk
Notes: Discogs
Add. Notes:
Encoder: FLAC
Bitrate: ~900 kBit/s (44.1 kHz/16 Bit/s)
Bin/Cue incl.: Yes
Size: 520,05 MB
Password: “slam” (without ” “)


http://www.share-online.biz/dl/RL3RLTRPE7
http://www.share-online.biz/dl/G19PLTRPWGL

https://rapidgator.net/file/8b58a6c71dceb5c62a3e23cb9c7a646c
https://rapidgator.net/file/b6b06d102eefeb85a1a744e978776c95

https://uploadbyte.com/9zfqw9ueqs39
https://uploadbyte.com/pnbpl5vtxf2z

https://uploadever.com/n4tdkdy082kd
https://uploadever.com/xe2mc1p3jxwz

https://justupload.io/xrdl940dh3ld
https://justupload.io/zcwk6e5117f7

Tracklist:

1 - Heavy Liquid - 3:24
2 - I Got Nothin' - 4:29
3 - Rich Bitch - 11:46
4 - Cock In My Pocket - 7:08
5 - Louie Louie - 3:40
6 - Raw Power - 5:48
7 - Head On - 8:31
8 - Gimme Danger - 7:11
9 - Search And Destroy - 8:44
10 - Heavy Liquid (I Wanna Be Your Dog) - 9:52
11 - Open Up And Bleed - 3:56

EAC-Log, CUE-Sheed & NFO:

Click to open spoiler
Exact Audio Copy V1.1 from 23. June 2015

EAC extraction logfile from 23. June 2017, 19:22

Iggy & The Stooges / Metallic 2×’KO [1999, MRCD 150]

Used drive : HL-DT-STDVDRAM GH24NSD0 Adapter: 1 ID: 0

Read mode : Secure
Utilize accurate stream : Yes
Defeat audio cache : Yes
Make use of C2 pointers : No

Read offset correction : 6
Overread into Lead-In and Lead-Out : No
Fill up missing offset samples with silence : Yes
Delete leading and trailing silent blocks : No
Null samples used in CRC calculations : Yes
Used interface : Native Win32 interface for Win NT & 2000
Gap handling : Appended to previous track

Used output format : User Defined Encoder
Selected bitrate : 768 kBit/s
Quality : High
Add ID3 tag : No
Command line compressor : C:\Program Files (x86)\Exact Audio Copy\FLAC\FLAC.EXE
Additional command line options : -V -8 -T “Genre=%genre%” -T “Artist=%artist%” -T “Title=%title%” -T “Album=%albumtitle%” -T “Date=%year%” -T “Tracknumber=%tracknr%” -T “Comment=%comment%” %source%

TOC of the extracted CD

Track | Start | Length | Start sector | End sector
———————————————————
1 | 0:00.00 | 3:24.25 | 0 | 15324
2 | 3:24.25 | 4:29.10 | 15325 | 35509
3 | 7:53.35 | 11:46.00 | 35510 | 88459
4 | 19:39.35 | 7:08.32 | 88460 | 120591
5 | 26:47.67 | 3:39.40 | 120592 | 137056
6 | 30:27.32 | 5:47.52 | 137057 | 163133
7 | 36:15.09 | 8:30.68 | 163134 | 201451
8 | 44:46.02 | 7:11.12 | 201452 | 233788
9 | 51:57.14 | 8:44.33 | 233789 | 273121
10 | 60:41.47 | 9:52.30 | 273122 | 317551
11 | 70:34.02 | 3:54.23 | 317552 | 335124

Track 1

Filename D:\g.y.m\Stooges, The\1976. Metallic 2×’KO [1999, MRCD 150]\01. Heavy Liquid.wav

Pre-gap length 0:00:02.00

Peak level 96.7 %
Extraction speed 4.7 X
Track quality 100.0 %
Test CRC 404639AF
Copy CRC 404639AF
Accurately ripped (confidence 2) [D1C11B45] (AR v1)
Copy OK

Track 2

Filename D:\g.y.m\Stooges, The\1976. Metallic 2×’KO [1999, MRCD 150]\02. I Got Nothin’.wav

Peak level 96.8 %
Extraction speed 5.4 X
Track quality 100.0 %
Test CRC 7DE092E6
Copy CRC 7DE092E6
Accurately ripped (confidence 2) [0033DD07] (AR v1)
Copy OK

Track 3

Filename D:\g.y.m\Stooges, The\1976. Metallic 2×’KO [1999, MRCD 150]\03. Rich Bitch.wav

Peak level 99.4 %
Extraction speed 6.7 X
Track quality 100.0 %
Test CRC A1630C57
Copy CRC A1630C57
Accurately ripped (confidence 2) [94DBDAC7] (AR v1)
Copy OK

Track 4

Filename D:\g.y.m\Stooges, The\1976. Metallic 2×’KO [1999, MRCD 150]\04. Cock In My Pocket.wav

Peak level 97.1 %
Extraction speed 7.3 X
Track quality 100.0 %
Test CRC 5A36F665
Copy CRC 5A36F665
Accurately ripped (confidence 2) [7406D637] (AR v1)
Copy OK

Track 5

Filename D:\g.y.m\Stooges, The\1976. Metallic 2×’KO [1999, MRCD 150]\05. Louie Louie.wav

Peak level 98.1 %
Extraction speed 7.2 X
Track quality 100.0 %
Test CRC B6FF2615
Copy CRC B6FF2615
Accurately ripped (confidence 2) [EB4C1BB6] (AR v1)
Copy OK

Track 6

Filename D:\g.y.m\Stooges, The\1976. Metallic 2×’KO [1999, MRCD 150]\06. Raw Power.wav

Peak level 94.2 %
Extraction speed 8.0 X
Track quality 100.0 %
Test CRC 1DE00CA4
Copy CRC 1DE00CA4
Accurately ripped (confidence 2) [B5974737] (AR v1)
Copy OK

Track 7

Filename D:\g.y.m\Stooges, The\1976. Metallic 2×’KO [1999, MRCD 150]\07. Head On.wav

Peak level 93.9 %
Extraction speed 8.8 X
Track quality 100.0 %
Test CRC D176B7F7
Copy CRC D176B7F7
Accurately ripped (confidence 2) [94B00428] (AR v1)
Copy OK

Track 8

Filename D:\g.y.m\Stooges, The\1976. Metallic 2×’KO [1999, MRCD 150]\08. Gimme Danger.wav

Peak level 94.0 %
Extraction speed 9.2 X
Track quality 100.0 %
Test CRC CEDD5882
Copy CRC CEDD5882
Accurately ripped (confidence 2) [547F82E5] (AR v1)
Copy OK

Track 9

Filename D:\g.y.m\Stooges, The\1976. Metallic 2×’KO [1999, MRCD 150]\09. Search And Destroy.wav

Peak level 93.9 %
Extraction speed 9.9 X
Track quality 100.0 %
Test CRC 3A75F6CE
Copy CRC 3A75F6CE
Accurately ripped (confidence 1) [2A40F28C] (AR v1)
Copy OK

Track 10

Filename D:\g.y.m\Stooges, The\1976. Metallic 2×’KO [1999, MRCD 150]\10. Heavy Liquid (I Wanna Be Your Dog).wav

Peak level 94.3 %
Extraction speed 10.5 X
Track quality 100.0 %
Test CRC 65116D5C
Copy CRC 65116D5C
Accurately ripped (confidence 1) [49DF9798] (AR v1)
Copy OK

Track 11

Filename D:\g.y.m\Stooges, The\1976. Metallic 2×’KO [1999, MRCD 150]\11. Open Up And Bleed.wav

Peak level 93.8 %
Extraction speed 9.8 X
Track quality 100.0 %
Test CRC 8B5CD7C4
Copy CRC 8B5CD7C4
Accurately ripped (confidence 2) [55DAE995] (AR v1)
Copy OK

All tracks accurately ripped

No errors occurred

End of status report

==== Log checksum 6CA87F8DCAD8046C48327FA445A2B6B2A81B20DE9EA4C8E98921600E0878589B ====

REM GENRE Proto-Punk
REM DATE 1976
REM DISCID 9F11740B
REM COMMENT “ExactAudioCopy v1.1”
PERFORMER “Iggy And The Stooges”
TITLE “Metallic 2.’KO [1999, MRCD 150]”
FILE “01. Heavy Liquid.wav” WAVE
TRACK 01 AUDIO
TITLE “Heavy Liquid”
PERFORMER “Iggy And The Stooges”
INDEX 01 00:00:00
FILE “02. I Got Nothin’.wav” WAVE
TRACK 02 AUDIO
TITLE “I Got Nothin'”
PERFORMER “Iggy And The Stooges”
INDEX 01 00:00:00
FILE “03. Rich Bitch.wav” WAVE
TRACK 03 AUDIO
TITLE “Rich Bitch”
PERFORMER “Iggy And The Stooges”
INDEX 01 00:00:00
FILE “04. Cock In My Pocket.wav” WAVE
TRACK 04 AUDIO
TITLE “Cock In My Pocket”
PERFORMER “Iggy And The Stooges”
INDEX 01 00:00:00
FILE “05. Louie Louie.wav” WAVE
TRACK 05 AUDIO
TITLE “Louie Louie”
PERFORMER “Iggy And The Stooges”
INDEX 01 00:00:00
FILE “06. Raw Power.wav” WAVE
TRACK 06 AUDIO
TITLE “Raw Power”
PERFORMER “Iggy And The Stooges”
INDEX 01 00:00:00
FILE “07. Head On.wav” WAVE
TRACK 07 AUDIO
TITLE “Head On”
PERFORMER “Iggy And The Stooges”
INDEX 01 00:00:00
FILE “08. Gimme Danger.wav” WAVE
TRACK 08 AUDIO
TITLE “Gimme Danger”
PERFORMER “Iggy And The Stooges”
INDEX 01 00:00:00
FILE “09. Search And Destroy.wav” WAVE
TRACK 09 AUDIO
TITLE “Search And Destroy”
PERFORMER “Iggy And The Stooges”
INDEX 01 00:00:00
FILE “10. Heavy Liquid (I Wanna Be Your Dog).wav” WAVE
TRACK 10 AUDIO
TITLE “Heavy Liquid (I Wanna Be Your Dog)”
PERFORMER “Iggy And The Stooges”
INDEX 01 00:00:00
FILE “11. Open Up And Bleed.wav” WAVE
TRACK 11 AUDIO
TITLE “Open Up And Bleed”
PERFORMER “Iggy And The Stooges”
INDEX 01 00:00:00

Leave a Reply

Your email address will not be published. Required fields are marked *

This site uses Akismet to reduce spam. Learn how your comment data is processed.