Icon For Hire – You Can’t Kill Us




No Cover available


Artist: Icon For Hire
Year: 2016
Genre: Rock
Notes: Discogs
Add. Notes:
Watch Songs on: YouTube
Cover incl.: Yes
Encoder: FLAC
Bitrate: ~1000 kBit/s (44.1 kHz/16 Bit/s)
Log & Cue incl.: Yes/Yes
Size: 332,6 MB
Password: “slam” (without ” “)


All Downloads/Hosters are compatible

Download 1
KatFile.com
Rapidgator.net
RockFile.co
Download 2
KatFile.com
Rapidgator.net
RockFile.co

Tracklist:

1 Supposed To Be 3:51
2 Demons 3:27
3 Pulse 3:14
4 The Magic 3:39
5 Happy Hurts 4:01
6 You Were Wrong 3:24
7 Too Loud 2:53
8 War 3:37
9 Under The Knife 3:41
10 Here We Are 3:19
11 Get Well II 3:06
12 Invincible 3:08
13 You Can't Kill Us 3:21

EAC-Log, CUE-Sheed & NFO:

Click to open spoiler
AUDIOCHECKER v2.0 beta (build 457) – by Dester – opdester@freemail.hu
~~~~~~~~~~~~~~~~~~~~~~~~~~~~~~~~~~

Started at: среда, 30. 11. 2016. – 7:06.42
13 files found

01 -===- D:\+Music\listen\2016 – You Can’t Kill Us (FLAC)\01 Supposed to Be.flac
Extracted successfully
Conclusion: this track is CDDA with probability 100%
Tempfile successfully deleted.

02 -===- D:\+Music\listen\2016 – You Can’t Kill Us (FLAC)\02 Demons.flac
Extracted successfully
Conclusion: this track is CDDA with probability 100%
Tempfile successfully deleted.

03 -===- D:\+Music\listen\2016 – You Can’t Kill Us (FLAC)\03 Pulse.flac
Extracted successfully
Conclusion: this track is CDDA with probability 100%
Tempfile successfully deleted.

04 -===- D:\+Music\listen\2016 – You Can’t Kill Us (FLAC)\04 The Magic.flac
Extracted successfully
Conclusion: this track is CDDA with probability 100%
Tempfile successfully deleted.

05 -===- D:\+Music\listen\2016 – You Can’t Kill Us (FLAC)\05 Happy Hurts.flac
Extracted successfully
Conclusion: this track is CDDA with probability 100%
Tempfile successfully deleted.

06 -===- D:\+Music\listen\2016 – You Can’t Kill Us (FLAC)\06 You Were Wrong.flac
Extracted successfully
Conclusion: this track is CDDA with probability 100%
Tempfile successfully deleted.

07 -===- D:\+Music\listen\2016 – You Can’t Kill Us (FLAC)\07 Too Loud.flac
Extracted successfully
Conclusion: this track is CDDA with probability 99%
Tempfile successfully deleted.

08 -===- D:\+Music\listen\2016 – You Can’t Kill Us (FLAC)\08 War.flac
Extracted successfully
Conclusion: this track is CDDA with probability 99%
Tempfile successfully deleted.

09 -===- D:\+Music\listen\2016 – You Can’t Kill Us (FLAC)\09 Under the Knife.flac
Extracted successfully
Conclusion: this track is CDDA with probability 100%
Tempfile successfully deleted.

10 -===- D:\+Music\listen\2016 – You Can’t Kill Us (FLAC)\10 Here We Are.flac
Extracted successfully
Conclusion: this track is CDDA with probability 100%
Tempfile successfully deleted.

11 -===- D:\+Music\listen\2016 – You Can’t Kill Us (FLAC)\11 Get Well II.flac
Extracted successfully
Conclusion: this track is CDDA with probability 100%
Tempfile successfully deleted.

12 -===- D:\+Music\listen\2016 – You Can’t Kill Us (FLAC)\12 Invincible.flac
Extracted successfully
Conclusion: this track is CDDA with probability 100%
Tempfile successfully deleted.

13 -===- D:\+Music\listen\2016 – You Can’t Kill Us (FLAC)\13 You Can’t Kill Us.flac
Extracted successfully
Conclusion: this track is CDDA with probability 99%
Tempfile successfully deleted.

Finished at: среда, 30. 11. 2016. – 7:09.59 (operation time: 0:03.16)
foobar2000 1.3.7 / Замер динамического диапазона (DR) 1.1.1
Дата отчёта: 2016-11-28 21:31:54

——————————————————————————–
Анализ: Icon for Hire / You Can’t Kill Us
——————————————————————————–

DR Пики RMS Продолжительность трека
——————————————————————————–
DR6 0.00 дБ -7.24 дБ 3:49 1-Supposed to Be
DR4 0.00 дБ -5.27 дБ 3:25 2-Demons
DR4 0.00 дБ -6.27 дБ 3:12 3-Pulse
DR4 0.00 дБ -6.61 дБ 3:37 4-The Magic
DR5 0.00 дБ -7.08 дБ 3:59 5-Happy Hurts
DR5 0.00 дБ -6.49 дБ 3:22 6-You Were Wrong
DR5 0.00 дБ -5.83 дБ 2:51 7-Too Loud
DR4 0.00 дБ -6.39 дБ 3:34 8-War
DR4 0.00 дБ -5.83 дБ 3:39 9-Under the Knife
DR5 0.00 дБ -7.02 дБ 3:16 10-Here We Are
DR6 0.00 дБ -7.07 дБ 3:04 11-Get Well II
DR3 0.00 дБ -5.37 дБ 3:06 12-Invincible
DR3 0.00 дБ -5.06 дБ 3:20 13-You Can’t Kill Us
——————————————————————————–

Количество треков: 13
Реальные значения DR: DR4

Частота: 44100 Гц
Каналов: 2
Разрядность: 16
Битрейт: 1064 кбит/с
Кодек: FLAC
================================================================================


Leave a Reply

Your email address will not be published. Required fields are marked *

Enter the text from the image below
 

This site uses Akismet to reduce spam. Learn how your comment data is processed.