Icon For Hire – Scripted (Japanese Edition)




No Cover available


Artist: Icon For Hire
Year: 2011
Genre: Rock
Notes: Discogs
Add. Notes: Japanese Edition
Watch Songs on: YouTube
Cover incl.: Yes
Encoder: FLAC
Bitrate: ~1100 kBit/s (44.1 kHz/16 Bit/s)
Log & Cue incl.: Yes/Yes
Size: 301,5 MB
Password: “slam” (without ” “)


All Downloads/Hosters are compatible

Download 1
KatFile.com
Rapidgator.net
RockFile.co
Download 2
KatFile.com
Rapidgator.net
RockFile.co

Tracklist:

1 Overture 0:30
2 Theatre 2:42
3 Make A Move 3:04
4 Get Well 2:57
5 The Grey 3:27
6 Off With Her Head 3:05
7 Fight 3:00
8 Up In Flames 2:48
9 Iodine 2:32
10 Only A Memory 3:51
11 Pieces 3:59

Japan Bonus Tracks:
12 Fall Apart 3:16
13 Call Me Alive 4:48

EAC-Log, CUE-Sheed & NFO:

Click to open spoiler
Exact Audio Copy V1.0 beta 3 from 29. August 2011

Отчёт EAC об извлечении, выполненном 12. января 2012, 11:02

Icon For Hire / Scripted

Дисковод: TSSTcorpCD/DVDW SH-S183A Adapter: 2 ID: 1

Режим чтения : Достоверность
Использование точного потока : Да
Отключение кэша аудио : Да
Использование указателей C2 : Нет

Коррекция смещения при чтении : 6
Способность читать области Lead-in и Lead-out : Нет
Заполнение пропущенных сэмплов тишиной : Да
Удаление блоков с тишиной в начале и конце : Нет
При вычислениях CRC использовались нулевые сэмплы : Да
Интерфейс : Встроенный Win32-интерфейс для Win NT/2000

Выходной формат : Пользовательский кодировщик
Выбранный битрейт : 896 kBit/s
Качество : Высокий
Добавление ID3-тега : Нет
Утилита сжатия : C:\Program Files (x86)\Exact Audio Copy\FLAC\FLAC.EXE
Дополнительные параметры : -V -8 -T “Date=%year%” -T “Genre=%genre%” %source%

TOC извлечённого CD

Трек | Старт | Длительность | Начальный сектор | Конечный сектор
———————————————————————
1 | 0:00.00 | 0:29.72 | 0 | 2246
2 | 0:29.72 | 2:42.01 | 2247 | 14397
3 | 3:11.73 | 3:03.61 | 14398 | 28183
4 | 6:15.59 | 2:57.07 | 28184 | 41465
5 | 9:12.66 | 3:27.19 | 41466 | 57009
6 | 12:40.10 | 3:05.06 | 57010 | 70890
7 | 15:45.16 | 3:00.12 | 70891 | 84402
8 | 18:45.28 | 2:48.29 | 84403 | 97031
9 | 21:33.57 | 2:32.09 | 97032 | 108440
10 | 24:05.66 | 3:51.00 | 108441 | 125765
11 | 27:56.66 | 3:59.30 | 125766 | 143720
12 | 31:56.21 | 3:15.64 | 143721 | 158409
13 | 35:12.10 | 4:47.41 | 158410 | 179975

Характеристики диапазона извлечения и сообщения об ошибках

Выбранный диапазон

Имя файла C:\Users\KennyMcK\Desktop\Icon For Hire – Scripted.wav

Пиковый уровень 99.8 %
Скорость извлечения 6.7 X
Качество диапазона 99.9 %
CRC теста 3377ADE6
CRC копии 3377ADE6
Копирование… OK

Ошибок не произошло

AccurateRip: сводка

Трек 1 отсутствует в базе данных
Трек 2 отсутствует в базе данных
Трек 3 отсутствует в базе данных
Трек 4 отсутствует в базе данных
Трек 5 отсутствует в базе данных
Трек 6 отсутствует в базе данных
Трек 7 отсутствует в базе данных
Трек 8 отсутствует в базе данных
Трек 9 отсутствует в базе данных
Трек 10 отсутствует в базе данных
Трек 11 отсутствует в базе данных
Трек 12 отсутствует в базе данных
Трек 13 отсутствует в базе данных

Ни одного трека нет в базе AccurateRip

Конец отчёта

—- CUETools DB Plugin V2.1.3

[CTDB TOCID: wu0I.EvJkSP8pgLQS1SZiHtauPc-] disk not present in database, Submit result: wu0I.EvJkSP8pgLQS1SZiHtauPc- has been uploaded

==== Контрольная сумма отчёта 8F9899E7043A45226D21A8E4B3E361ED1F12F6691D9C958EC7CF89F238E2B8FF ====

REM GENRE Rock
REM DATE 2011
REM DISCID B2095F0D
REM COMMENT ExactAudioCopy v1.0b3
PERFORMER “Icon For Hire”
TITLE “Scripted”
FILE “Icon For Hire – Scripted.flac” WAVE
TRACK 01 AUDIO
TITLE “Overture”
ISRC H2LN11100173
INDEX 01 00:00:00
TRACK 02 AUDIO
TITLE “Theater”
ISRC H2LN11100120
INDEX 01 00:29:72
TRACK 03 AUDIO
TITLE “Make A Move”
ISRC H2LN11100083
INDEX 01 03:11:73
TRACK 04 AUDIO
TITLE “Get Well”
ISRC H2LN11100125
INDEX 01 06:15:59
TRACK 05 AUDIO
TITLE “The Grey”
ISRC H2LN11100121
INDEX 01 09:12:66
TRACK 06 AUDIO
TITLE “Off With Her Head”
ISRC H2LN11100123
INDEX 01 12:40:10
TRACK 07 AUDIO
TITLE “Fight”
ISRC H2LN11100124
INDEX 01 15:45:16
TRACK 08 AUDIO
TITLE “Up In Flames”
ISRC H2LN11100126
INDEX 01 18:45:28
TRACK 09 AUDIO
TITLE “Iodine”
ISRC H2LN11100122
INDEX 01 21:33:57
TRACK 10 AUDIO
TITLE “Only A Memory”
ISRC H2LN11100119
INDEX 01 24:05:66
TRACK 11 AUDIO
TITLE “Pieces”
ISRC H2LN11100118
INDEX 01 27:56:66
TRACK 12 AUDIO
TITLE “Fall Apart (Demo Bonus Track)”
ISRC H2LN11100378
INDEX 00 31:51:19
INDEX 01 31:56:21
TRACK 13 AUDIO
TITLE “Call Me Alive (Demo Bonus Track)”
ISRC H2LN11100379
INDEX 00 35:10:70
INDEX 01 35:12:10


Leave a Reply

Your email address will not be published. Required fields are marked *

Enter the text from the image below
 

This site uses Akismet to reduce spam. Learn how your comment data is processed.