I Prevail – Trauma




Artist: I Prevail
Year: 2019
Genre: Rock
Notes: Discogs
Add. Notes:
Cover incl.: Yes
Encoder: FLAC
Bitrate: ~900 kBit/s (44.1 kHz/16 Bit/s)
Log & Cue incl.: Yes
Size: 289,77 MB
Password: “slam” (without ” “)


All Downloads/Hosters are compatible

Download 1
Turbobit.net
KatFile.com
Rapidgator.net
Download 2
Turbobit.net
KatFile.com
Rapidgator.net

Tracklist:

1. Bow Down 	
2. Paranoid 	
3. Every Time You Leave 	
4. Rise Above It 	
5. Breaking Down 	
6. DOA 	
7. Gasoline 	
8. Hurricane 	
9. Let Me Be Sad 	
10. Low 	
11. Goodbye (Interlude) 	
12. Deadweight 	
13. I Don't Belong Here

EAC-Log, CUE-Sheed & NFO:

Click to open spoiler
Exact Audio Copy V1.3 from 2. September 2016

EAC extraction logfile from 19. May 2019, 0:29

I Prevail / Trauma

Used drive : PLEXTOR DVDR PX-716A Adapter: 1 ID: 1

Read mode : Secure
Utilize accurate stream : Yes
Defeat audio cache : Yes
Make use of C2 pointers : No

Read offset correction : 30
Overread into Lead-In and Lead-Out : Yes
Fill up missing offset samples with silence : Yes
Delete leading and trailing silent blocks : No
Null samples used in CRC calculations : Yes
Used interface : Native Win32 interface for Win NT & 2000
Gap handling : Appended to previous track

Used output format : User Defined Encoder
Selected bitrate : 1024 kBit/s
Quality : High
Add ID3 tag : No
Command line compressor : C:\Program Files (x86)\Exact Audio Copy\Flac\flac.exe
Additional command line options : -8 -e -p -V -T “ARTIST=%artist%” -T “TITLE=%title%” -T “ALBUM=%albumtitle%” -T “DATE=%year%” -T “TRACKNUMBER=%tracknr%” -T “GENRE=%genre%” -T “PERFORMER=%albuminterpret%” -T “COMPOSER=%composer%” %haslyrics%–tag-from-file=LYRICS=”%lyricsfile%”%haslyrics% -T “ALBUMARTIST=%albumartist%” -T “DISCNUMBER=%cdnumber%” -T “TOTALDISCS=%totalcds%” -T “TOTALTRACKS=%numtracks%” -T “COMMENT=%comment%” %source% -o %dest%

TOC of the extracted CD

Track | Start | Length | Start sector | End sector
———————————————————
1 | 0:00.00 | 4:02.51 | 0 | 18200
2 | 4:02.51 | 2:24.41 | 18201 | 29041
3 | 6:27.17 | 3:36.47 | 29042 | 45288
4 | 10:03.64 | 3:04.39 | 45289 | 59127
5 | 13:08.28 | 3:26.11 | 59128 | 74588
6 | 16:34.39 | 3:16.14 | 74589 | 89302
7 | 19:50.53 | 2:33.46 | 89303 | 100823
8 | 22:24.24 | 3:43.13 | 100824 | 117561
9 | 26:07.37 | 3:34.17 | 117562 | 133628
10 | 29:41.54 | 2:45.27 | 133629 | 146030
11 | 32:27.06 | 1:42.67 | 146031 | 153747
12 | 34:09.73 | 3:04.25 | 153748 | 167572
13 | 37:14.23 | 3:41.70 | 167573 | 184217

Track 1

Filename C:\rips\I Prevail – Trauma (2019) [FLAC] {FEAR00660}\01 – Bow Down.wav

Pre-gap length 0:00:02.00

Peak level 95.4 %
Extraction speed 5.2 X
Track quality 99.9 %
Test CRC 3E61A09A
Copy CRC 3E61A09A
Track not present in AccurateRip database
Copy OK

Track 2

Filename C:\rips\I Prevail – Trauma (2019) [FLAC] {FEAR00660}\02 – Paranoid.wav

Peak level 95.4 %
Extraction speed 8.6 X
Track quality 100.0 %
Test CRC 0AB412B5
Copy CRC 0AB412B5
Track not present in AccurateRip database
Copy OK

Track 3

Filename C:\rips\I Prevail – Trauma (2019) [FLAC] {FEAR00660}\03 – Every Time You Leave (feat. Delaney Jane).wav

Peak level 95.4 %
Extraction speed 9.4 X
Track quality 100.0 %
Test CRC A2795026
Copy CRC A2795026
Track not present in AccurateRip database
Copy OK

Track 4

Filename C:\rips\I Prevail – Trauma (2019) [FLAC] {FEAR00660}\04 – Rise Above It (feat. Justin Stone).wav

Peak level 95.4 %
Extraction speed 9.9 X
Track quality 100.0 %
Test CRC 9B020DEF
Copy CRC 9B020DEF
Track not present in AccurateRip database
Copy OK

Track 5

Filename C:\rips\I Prevail – Trauma (2019) [FLAC] {FEAR00660}\05 – Breaking Down.wav

Peak level 95.4 %
Extraction speed 9.1 X
Track quality 99.9 %
Test CRC 36B909DB
Copy CRC 36B909DB
Track not present in AccurateRip database
Copy OK

Track 6

Filename C:\rips\I Prevail – Trauma (2019) [FLAC] {FEAR00660}\06 – DOA.wav

Peak level 95.4 %
Extraction speed 9.3 X
Track quality 99.9 %
Test CRC 8D538E03
Copy CRC 8D538E03
Track not present in AccurateRip database
Copy OK

Track 7

Filename C:\rips\I Prevail – Trauma (2019) [FLAC] {FEAR00660}\07 – Gasoline.wav

Peak level 95.4 %
Extraction speed 11.3 X
Track quality 100.0 %
Test CRC DD921723
Copy CRC DD921723
Track not present in AccurateRip database
Copy OK

Track 8

Filename C:\rips\I Prevail – Trauma (2019) [FLAC] {FEAR00660}\08 – Hurricane.wav

Peak level 95.4 %
Extraction speed 12.0 X
Track quality 100.0 %
Test CRC A1C26A3D
Copy CRC A1C26A3D
Track not present in AccurateRip database
Copy OK

Track 9

Filename C:\rips\I Prevail – Trauma (2019) [FLAC] {FEAR00660}\09 – Let Me Be Sad.wav

Peak level 95.4 %
Extraction speed 12.1 X
Track quality 100.0 %
Test CRC ED97BF41
Copy CRC ED97BF41
Track not present in AccurateRip database
Copy OK

Track 10

Filename C:\rips\I Prevail – Trauma (2019) [FLAC] {FEAR00660}\10 – Low.wav

Peak level 95.4 %
Extraction speed 7.5 X
Track quality 99.9 %
Test CRC 355B525C
Copy CRC 355B525C
Track not present in AccurateRip database
Copy OK

Track 11

Filename C:\rips\I Prevail – Trauma (2019) [FLAC] {FEAR00660}\11 – Goodbye (Interlude).wav

Peak level 95.4 %
Extraction speed 8.6 X
Track quality 99.8 %
Test CRC E4ADF181
Copy CRC E4ADF181
Track not present in AccurateRip database
Copy OK

Track 12

Filename C:\rips\I Prevail – Trauma (2019) [FLAC] {FEAR00660}\12 – Deadweight.wav

Peak level 95.4 %
Extraction speed 6.3 X
Track quality 100.0 %
Test CRC 4BE9C169
Copy CRC 4BE9C169
Track not present in AccurateRip database
Copy OK

Track 13

Filename C:\rips\I Prevail – Trauma (2019) [FLAC] {FEAR00660}\13 – I Don’t Belong Here.wav

Peak level 98.4 %
Extraction speed 11.9 X
Track quality 100.0 %
Test CRC E497F163
Copy CRC E497F163
Track not present in AccurateRip database
Copy OK

None of the tracks are present in the AccurateRip database

No errors occurred

End of status report

—- CUETools DB Plugin V2.1.6

[CTDB TOCID: _0vx9_zAr7q0puUWzAjMFJjLrMg-] found
Submit result: _0vx9_zAr7q0puUWzAjMFJjLrMg- has been confirmed
Track | CTDB Status
1 | (36/36) Accurately ripped
2 | (36/36) Accurately ripped
3 | (36/36) Accurately ripped
4 | (36/36) Accurately ripped
5 | (36/36) Accurately ripped
6 | (36/36) Accurately ripped
7 | (36/36) Accurately ripped
8 | (36/36) Accurately ripped
9 | (36/36) Accurately ripped
10 | (36/36) Accurately ripped
11 | (36/36) Accurately ripped
12 | (36/36) Accurately ripped
13 | (36/36) Accurately ripped

==== Log checksum 86C24E603B21D492BD5F48AB3139B81DD52F63313DF27B4A71E6B6EB49055943 ====

REM GENRE Rock
REM DATE 2019
REM DISCID C209980D
REM COMMENT “ExactAudioCopy v1.3”
CATALOG 0888072075894
PERFORMER “I Prevail”
TITLE “Trauma”
REM COMPOSER “”
FILE “01 – Bow Down.wav” WAVE
TRACK 01 AUDIO
TITLE “Bow Down”
PERFORMER “I Prevail”
REM COMPOSER “”
ISRC US5261923083
INDEX 01 00:00:00
FILE “02 – Paranoid.wav” WAVE
TRACK 02 AUDIO
TITLE “Paranoid”
PERFORMER “I Prevail”
REM COMPOSER “”
ISRC US5261923084
INDEX 01 00:00:00
FILE “03 – Every Time You Leave (feat. Delaney Jane).wav” WAVE
TRACK 03 AUDIO
TITLE “Every Time You Leave (feat. Delaney Jane)”
PERFORMER “I Prevail”
REM COMPOSER “”
ISRC US5261923085
INDEX 01 00:00:00
FILE “04 – Rise Above It (feat. Justin Stone).wav” WAVE
TRACK 04 AUDIO
TITLE “Rise Above It (feat. Justin Stone)”
PERFORMER “I Prevail”
REM COMPOSER “”
ISRC US5261923086
INDEX 01 00:00:00
FILE “05 – Breaking Down.wav” WAVE
TRACK 05 AUDIO
TITLE “Breaking Down”
PERFORMER “I Prevail”
REM COMPOSER “”
ISRC US5261923087
INDEX 01 00:00:00
FILE “06 – DOA.wav” WAVE
TRACK 06 AUDIO
TITLE “DOA”
PERFORMER “I Prevail”
REM COMPOSER “”
ISRC US5261923088
INDEX 01 00:00:00
FILE “07 – Gasoline.wav” WAVE
TRACK 07 AUDIO
TITLE “Gasoline”
PERFORMER “I Prevail”
REM COMPOSER “”
ISRC US5261923089
INDEX 01 00:00:00
FILE “08 – Hurricane.wav” WAVE
TRACK 08 AUDIO
TITLE “Hurricane”
PERFORMER “I Prevail”
REM COMPOSER “”
ISRC US5261923090
INDEX 01 00:00:00
FILE “09 – Let Me Be Sad.wav” WAVE
TRACK 09 AUDIO
TITLE “Let Me Be Sad”
PERFORMER “I Prevail”
REM COMPOSER “”
ISRC US5261923091
INDEX 01 00:00:00
FILE “10 – Low.wav” WAVE
TRACK 10 AUDIO
TITLE “Low”
PERFORMER “I Prevail”
REM COMPOSER “”
ISRC US5261923092
INDEX 01 00:00:00
FILE “11 – Goodbye (Interlude).wav” WAVE
TRACK 11 AUDIO
TITLE “Goodbye (Interlude)”
PERFORMER “I Prevail”
REM COMPOSER “”
ISRC US5261923093
INDEX 01 00:00:00
FILE “12 – Deadweight.wav” WAVE
TRACK 12 AUDIO
TITLE “Deadweight”
PERFORMER “I Prevail”
REM COMPOSER “”
ISRC US5261923094
INDEX 01 00:00:00
FILE “13 – I Don’t Belong Here.wav” WAVE
TRACK 13 AUDIO
TITLE “I Don’t Belong Here”
PERFORMER “I Prevail”
REM COMPOSER “”
ISRC US5261923095
INDEX 01 00:00:00


Leave a Reply

Your email address will not be published. Required fields are marked *

This site uses Akismet to reduce spam. Learn how your comment data is processed.