Hypocrisy – Virus (Limited Edition)




No Cover available

Artist: Hypocrisy
Year: 2005
Genre: Metal
Notes: Discogs
Add. Notes: Limited Edition
Watch Songs on: YouTube
Cover incl.: Yes
Encoder: FLAC
Bitrate: ~1100 kBit/s (44.1 kHz/16 Bit/s)
Log & Cue incl.: Yes/Yes
Size: 476,5 MB
Password: “slam” (without ” “)


All Downloads/Hosters are compatible

Download 1
KatFile.com
Turbobit.net
FileFactory.com
Rapidgator.net
Download 2
KatFile.com
Turbobit.net
FileFactory.com
Rapidgator.net

Tracklist:

1 XVI 0:16
2 War-Path 4:23
3 Scrutinized 4:24
4 Fearless 4:23
5 Craving For Another Killing 3:50
6 Let The Knife Do The Talking 4:14
7 A Thousand Lies 4:52
8 Incised Before I've Ceased 4:28
9 Blooddrenched 3:43
10 Compulsive Psychosis 4:14
11 Living To Die 5:40
12 Watch Out 3:35

EAC-Log, CUE-Sheed & NFO:

Click to open spoiler
Exact Audio Copy V0.99 prebeta 5 from 4. May 2009

EAC extraction logfile from 12. May 2012, 21:19

Hypocrisy / Virus

Used drive : Optiarc BD RW BD-5740H Adapter: 0 ID: 1

Read mode : Secure
Utilize accurate stream : Yes
Defeat audio cache : Yes
Make use of C2 pointers : No

Read offset correction : 48
Overread into Lead-In and Lead-Out : No
Fill up missing offset samples with silence : Yes
Delete leading and trailing silent blocks : No
Null samples used in CRC calculations : Yes
Used interface : Native Win32 interface for Win NT & 2000

Used output format : User Defined Encoder
Selected bitrate : 128 kBit/s
Quality : High
Add ID3 tag : No
Command line compressor : C:\Program Files (x86)\FLAC\flac.exe
Additional command line options : -T “DATE=%y” -T “GENRE=%m” -8 -V %s

TOC of the extracted CD

Track | Start | Length | Start sector | End sector
———————————————————
1 | 0:00.00 | 0:16.12 | 0 | 1211
2 | 0:16.12 | 4:23.61 | 1212 | 20997
3 | 4:39.73 | 4:24.55 | 20998 | 40852
4 | 9:04.53 | 4:23.45 | 40853 | 60622
5 | 13:28.23 | 3:50.12 | 60623 | 77884
6 | 17:18.35 | 4:14.45 | 77885 | 96979
7 | 21:33.05 | 4:52.31 | 96980 | 118910
8 | 26:25.36 | 4:28.38 | 118911 | 139048
9 | 30:53.74 | 3:43.00 | 139049 | 155773
10 | 34:36.74 | 4:14.38 | 155774 | 174861
11 | 38:51.37 | 5:41.74 | 174862 | 200510
12 | 44:33.36 | 3:34.03 | 200511 | 216563

Range status and errors

Selected range

Filename C:\Ripped By liveevil\Hypocrisy – Virus.wav

Peak level 100.0 %
Range quality 100.0 %
Test CRC 303C283F
Copy CRC 303C283F
Copy OK

No errors occurred

AccurateRip summary

Track 1 accurately ripped (confidence 23) [E5785136]
Track 2 accurately ripped (confidence 23) [9BAA1A7F]
Track 3 accurately ripped (confidence 23) [E060A2F4]
Track 4 accurately ripped (confidence 23) [30AAE0C0]
Track 5 accurately ripped (confidence 23) [525659C4]
Track 6 accurately ripped (confidence 23) [B1DD533A]
Track 7 accurately ripped (confidence 23) [3A13118B]
Track 8 accurately ripped (confidence 23) [7A6438A2]
Track 9 accurately ripped (confidence 23) [666124C4]
Track 10 accurately ripped (confidence 23) [EDF8134B]
Track 11 accurately ripped (confidence 24) [89517CF1]
Track 12 accurately ripped (confidence 22) [3DADE2E9]

All tracks accurately ripped

End of status report

REM GENRE “Death Metal”
REM DATE 2005
REM DISCID 9C0B470C
REM COMMENT “ExactAudioCopy v0.99pb5”
PERFORMER “Hypocrisy”
TITLE “Virus (2005 Nuclear Blast, NB 1141-0, CD/DVD, Germany)”
FILE “Hypocrisy – Virus.wav” WAVE
TRACK 01 AUDIO
TITLE “XVI”
PERFORMER “Hypocrisy”
INDEX 01 00:00:00
TRACK 02 AUDIO
TITLE “War-Path”
PERFORMER “Hypocrisy”
INDEX 01 00:16:12
TRACK 03 AUDIO
TITLE “Scrutinized”
PERFORMER “Hypocrisy”
INDEX 01 04:39:73
TRACK 04 AUDIO
TITLE “Fearless”
PERFORMER “Hypocrisy”
INDEX 01 09:04:53
TRACK 05 AUDIO
TITLE “Craving For Another Killing”
PERFORMER “Hypocrisy”
INDEX 01 13:28:23
TRACK 06 AUDIO
TITLE “Let The Knife Do The Talking”
PERFORMER “Hypocrisy”
INDEX 01 17:18:35
TRACK 07 AUDIO
TITLE “A Thousand Lies”
PERFORMER “Hypocrisy”
INDEX 01 21:33:05
TRACK 08 AUDIO
TITLE “Incised Before I’ve Ceased”
PERFORMER “Hypocrisy”
INDEX 01 26:25:36
TRACK 09 AUDIO
TITLE “Blooddrenched”
PERFORMER “Hypocrisy”
INDEX 01 30:53:74
TRACK 10 AUDIO
TITLE “Compulsive Psychosis”
PERFORMER “Hypocrisy”
INDEX 01 34:36:74
TRACK 11 AUDIO
TITLE “Living To Die”
PERFORMER “Hypocrisy”
INDEX 01 38:51:37
TRACK 12 AUDIO
TITLE “Watch Out (Demo – Hidden Bonus Track)”
PERFORMER “Hypocrisy”
INDEX 00 44:31:66
INDEX 01 44:33:36


Leave a Reply

Your email address will not be published. Required fields are marked *

Enter the text from the image below
 

This site uses Akismet to reduce spam. Learn how your comment data is processed.