Hypocrisy – The Fourth Dimension




No Cover available

Artist: Hypocrisy
Year: 1994
Genre: Metal
Notes: Discogs
Add. Notes:
Watch Songs on: YouTube
Cover incl.: Yes
Encoder: FLAC
Bitrate: ~1000 kBit/s (44.1 kHz/16 Bit/s)
Log & Cue incl.: Yes/Yes
Size: 440,9 MB
Password: “slam” (without ” “)


All Downloads/Hosters are compatible

Download 1
KatFile.com
Turbobit.net
FileFactory.com
Rapidgator.net
Download 2
KatFile.com
Turbobit.net
FileFactory.com
Rapidgator.net

Tracklist:

1 Apocalypse 5:54
2 Mind Corruption 3:50
3 Reincarnation 3:50
4 Reborn 3:07
5 Black Forest 4:26
6 Never To Return 4:06
7 Path To Babylon 3:41
8 Slaughtered 5:39
9 Orgy In Blood 3:20
10 The North Wind 3:44
11 T.E.M.P.T. 3:18
12 The Fourth Dimension 5:52
13 The Arrival Of The Demons 1:48

EAC-Log, CUE-Sheed & NFO:

Click to open spoiler
Exact Audio Copy V0.99 prebeta 5 from 4. May 2009

EAC extraction logfile from 1. May 2012, 21:01

Hypocrisy / Fourth Dimension

Used drive : Optiarc BD RW BD-5740H Adapter: 0 ID: 1

Read mode : Secure
Utilize accurate stream : Yes
Defeat audio cache : Yes
Make use of C2 pointers : No

Read offset correction : 48
Overread into Lead-In and Lead-Out : No
Fill up missing offset samples with silence : Yes
Delete leading and trailing silent blocks : No
Null samples used in CRC calculations : Yes
Used interface : Native Win32 interface for Win NT & 2000

Used output format : User Defined Encoder
Selected bitrate : 128 kBit/s
Quality : High
Add ID3 tag : No
Command line compressor : C:\Program Files (x86)\FLAC\flac.exe
Additional command line options : -T “DATE=%y” -T “GENRE=%m” -8 -V %s

TOC of the extracted CD

Track | Start | Length | Start sector | End sector
———————————————————
1 | 0:00.00 | 5:56.25 | 0 | 26724
2 | 5:56.25 | 3:51.40 | 26725 | 44089
3 | 9:47.65 | 3:49.58 | 44090 | 61322
4 | 13:37.48 | 3:07.67 | 61323 | 75414
5 | 16:45.40 | 4:23.68 | 75415 | 95207
6 | 21:09.33 | 4:08.35 | 95208 | 113842
7 | 25:17.68 | 3:43.22 | 113843 | 130589
8 | 29:01.15 | 5:39.15 | 130590 | 156029
9 | 34:40.30 | 3:21.00 | 156030 | 171104
10 | 38:01.30 | 3:45.15 | 171105 | 187994
11 | 41:46.45 | 3:19.50 | 187995 | 202969
12 | 45:06.20 | 5:51.63 | 202970 | 229357
13 | 50:58.08 | 1:50.12 | 229358 | 237619

Range status and errors

Selected range

Filename C:\Ripped By liveevil\Hypocrisy – Fourth Dimension.wav

Peak level 98.8 %
Range quality 100.0 %
Test CRC D518FDF2
Copy CRC D518FDF2
Copy OK

No errors occurred

AccurateRip summary

Track 1 accurately ripped (confidence 9) [568E3295]
Track 2 accurately ripped (confidence 9) [27899D24]
Track 3 accurately ripped (confidence 9) [DD8AE9F6]
Track 4 accurately ripped (confidence 9) [D830F501]
Track 5 accurately ripped (confidence 9) [30A1E155]
Track 6 accurately ripped (confidence 9) [19233EA7]
Track 7 accurately ripped (confidence 9) [398BEC49]
Track 8 accurately ripped (confidence 9) [27E37034]
Track 9 accurately ripped (confidence 9) [362C5590]
Track 10 accurately ripped (confidence 9) [38F85607]
Track 11 accurately ripped (confidence 9) [16202BF1]
Track 12 accurately ripped (confidence 9) [3A3F4A2B]
Track 13 accurately ripped (confidence 9) [453FCD09]

All tracks accurately ripped

End of status report

REM GENRE “Death Metal”
REM DATE 1994
REM DISCID B00C600D
REM COMMENT “ExactAudioCopy v0.99pb5”
PERFORMER “Hypocrisy”
TITLE “Fourth Dimension (1994 Nuclear Blast, NB 112-2, Germany)”
FILE “Hypocrisy – Fourth Dimension.flac” WAVE
TRACK 01 AUDIO
TITLE “Apocalypse”
PERFORMER “Hypocrisy”
INDEX 01 00:00:00
TRACK 02 AUDIO
TITLE “Mind Corruption”
PERFORMER “Hypocrisy”
INDEX 00 05:55:38
INDEX 01 05:56:25
TRACK 03 AUDIO
TITLE “Reincarnation”
PERFORMER “Hypocrisy”
INDEX 00 09:47:00
INDEX 01 09:47:65
TRACK 04 AUDIO
TITLE “Reborn”
PERFORMER “Hypocrisy”
INDEX 00 13:36:55
INDEX 01 13:37:48
TRACK 05 AUDIO
TITLE “Black Forest”
PERFORMER “Hypocrisy”
INDEX 00 16:44:45
INDEX 01 16:45:40
TRACK 06 AUDIO
TITLE “Never To Return”
PERFORMER “Hypocrisy”
INDEX 01 21:09:33
TRACK 07 AUDIO
TITLE “Path To Babylon”
PERFORMER “Hypocrisy”
INDEX 01 25:17:68
TRACK 08 AUDIO
TITLE “Slaughtered”
PERFORMER “Hypocrisy”
INDEX 01 29:01:15
TRACK 09 AUDIO
TITLE “Orgy In Blood”
PERFORMER “Hypocrisy”
INDEX 01 34:40:30
TRACK 10 AUDIO
TITLE “The North Wind”
PERFORMER “Hypocrisy”
INDEX 00 38:00:40
INDEX 01 38:01:30
TRACK 11 AUDIO
TITLE “T.E.M.P.T.”
PERFORMER “Hypocrisy”
INDEX 01 41:46:45
TRACK 12 AUDIO
TITLE “The Fourth Dimension”
PERFORMER “Hypocrisy”
INDEX 01 45:06:20
TRACK 13 AUDIO
TITLE “The Arrival Of Demons”
PERFORMER “Hypocrisy”
INDEX 01 50:58:08


Leave a Reply

Your email address will not be published. Required fields are marked *

Enter the text from the image below
 

This site uses Akismet to reduce spam. Learn how your comment data is processed.