Hypocrisy – The Final Chapter (Japanese Edition)




No Cover available

Artist: Hypocrisy
Year: 1997
Genre: Metal
Notes: Discogs
Add. Notes: Japanese Edition
Watch Songs on: YouTube
Cover incl.: Yes
Encoder: FLAC
Bitrate: ~1000 kBit/s (44.1 kHz/16 Bit/s)
Log & Cue incl.: Yes/Yes
Size: 514,22 MB
Password: “slam” (without ” “)


All Downloads/Hosters are compatible

Download 1
KatFile.com
Turbobit.net
Rapidgator.net
FileFactory.com
Download 2
KatFile.com
Turbobit.net
Rapidgator.net
FileFactory.com

Tracklist:

1 Inseminated Adoption 4:35
2 A Coming Race 5:09
3 Dominion 3:34
4 Inquire Within 5:47
5 Last Vanguard 3:25
6 Request Denied 4:53
7 Through The Window Of Time 3:31
8 Shamateur 5:18
9 Adjusting The Sun 4:44
10 Lies 4:38
11 Evil Invaders 3:50
12 The Final Chapter 5:22

Japaneese Bonus Track
13 Fuck 3:46

EAC-Log, CUE-Sheed & NFO:

Click to open spoiler
Exact Audio Copy V0.99 prebeta 5 from 4. May 2009

EAC extraction logfile from 18. August 2011, 22:34

Hypocrisy / The Final Chapter (Avalon, MICY-1043, Japan)

Used drive : Optiarc BD RW BD-5740H Adapter: 0 ID: 1

Read mode : Secure
Utilize accurate stream : Yes
Defeat audio cache : Yes
Make use of C2 pointers : No

Read offset correction : 48
Overread into Lead-In and Lead-Out : No
Fill up missing offset samples with silence : Yes
Delete leading and trailing silent blocks : No
Null samples used in CRC calculations : Yes
Used interface : Native Win32 interface for Win NT & 2000

Used output format : User Defined Encoder
Selected bitrate : 128 kBit/s
Quality : High
Add ID3 tag : No
Command line compressor : C:\Program Files (x86)\FLAC\flac.exe
Additional command line options : -T “DATE=%y” -T “GENRE=%m” -8 -V %s

TOC of the extracted CD

Track | Start | Length | Start sector | End sector
———————————————————
1 | 0:00.00 | 4:34.60 | 0 | 20609
2 | 4:34.60 | 5:08.40 | 20610 | 43749
3 | 9:43.25 | 3:33.65 | 43750 | 59789
4 | 13:17.15 | 5:47.35 | 59790 | 85849
5 | 19:04.50 | 3:25.12 | 85850 | 101236
6 | 22:29.62 | 4:52.70 | 101237 | 123206
7 | 27:22.57 | 3:30.70 | 123207 | 139026
8 | 30:53.52 | 5:18.08 | 139027 | 162884
9 | 36:11.60 | 4:43.52 | 162885 | 184161
10 | 40:55.37 | 4:37.70 | 184162 | 205006
11 | 45:33.32 | 3:49.70 | 205007 | 222251
12 | 49:23.27 | 5:26.71 | 222252 | 246772
13 | 54:50.23 | 3:41.72 | 246773 | 263419

Range status and errors

Selected range

Filename C:\Ripped By liveevil\Hypocrisy – The Final Chapter (Avalon, MICY-1043, Japan).wav

Peak level 100.0 %
Range quality 99.9 %
Test CRC 147938D1
Copy CRC 147938D1
Copy OK

No errors occurred

AccurateRip summary

Track 1 not present in database
Track 2 not present in database
Track 3 not present in database
Track 4 not present in database
Track 5 not present in database
Track 6 not present in database
Track 7 not present in database
Track 8 not present in database
Track 9 not present in database
Track 10 not present in database
Track 11 not present in database
Track 12 not present in database
Track 13 not present in database

None of the tracks are present in the AccurateRip database

End of status report

REM GENRE “Death Metal”
REM DATE 1997
REM DISCID CA0DB80D
REM COMMENT “ExactAudioCopy v0.99pb5”
PERFORMER “Hypocrisy”
TITLE “The Final Chapter (1998 Avalon / Marquee, MICY-1043, Japan)”
FILE “Hypocrisy – The Final Chapter.flac” WAVE
TRACK 01 AUDIO
TITLE “Inseminated Adoption”
PERFORMER “Hypocrisy”
INDEX 01 00:00:00
TRACK 02 AUDIO
TITLE “A Coming Rage”
PERFORMER “Hypocrisy”
INDEX 00 04:32:60
INDEX 01 04:34:60
TRACK 03 AUDIO
TITLE “Dominion”
PERFORMER “Hypocrisy”
INDEX 00 09:41:47
INDEX 01 09:43:25
TRACK 04 AUDIO
TITLE “Inquire Within”
PERFORMER “Hypocrisy”
INDEX 00 13:15:15
INDEX 01 13:17:15
TRACK 05 AUDIO
TITLE “Last Vanguard”
PERFORMER “Hypocrisy”
INDEX 00 19:03:00
INDEX 01 19:04:50
TRACK 06 AUDIO
TITLE “Request Denied”
PERFORMER “Hypocrisy”
INDEX 00 22:28:10
INDEX 01 22:29:62
TRACK 07 AUDIO
TITLE “Through The Window Of Time”
PERFORMER “Hypocrisy”
INDEX 00 27:20:67
INDEX 01 27:22:57
TRACK 08 AUDIO
TITLE “Shamateur”
PERFORMER “Hypocrisy”
INDEX 00 30:52:02
INDEX 01 30:53:52
TRACK 09 AUDIO
TITLE “Adjusting The Sun”
PERFORMER “Hypocrisy”
INDEX 00 36:09:70
INDEX 01 36:11:60
TRACK 10 AUDIO
TITLE “Lies”
PERFORMER “Hypocrisy”
INDEX 00 40:53:40
INDEX 01 40:55:37
TRACK 11 AUDIO
TITLE “Evil Invaders”
PERFORMER “Hypocrisy”
INDEX 00 45:31:45
INDEX 01 45:33:32
TRACK 12 AUDIO
TITLE “The Final Chapter”
PERFORMER “Hypocrisy”
INDEX 00 49:21:32
INDEX 01 49:23:27
TRACK 13 AUDIO
TITLE “Fuck (Bonus Track)”
PERFORMER “Hypocrisy”
INDEX 00 54:45:23
INDEX 01 54:50:23


Leave a Reply

Your email address will not be published. Required fields are marked *

Enter the text from the image below
 

This site uses Akismet to reduce spam. Learn how your comment data is processed.