Hypocrisy – Penetralia




No Cover available

Artist: Hypocrisy
Year: 1992
Genre: Metal
Notes: Discogs
Add. Notes:
Watch Songs on: YouTube
Cover incl.: No
Encoder: FLAC
Bitrate: ~1000 kBit/s (44.1 kHz/16 Bit/s)
Log & Cue incl.: Yes/Yes
Size: 342,4 MB
Password: “slam” (without ” “)


All Downloads/Hosters are compatible

Download 1
KatFile.com
Turbobit.net
FileFactory.com
Rapidgator.net
Download 2
KatFile.com
Turbobit.net
FileFactory.com
Rapidgator.net

Tracklist:

1 Impotent God 3:50
2 Suffering Souls 3:27
3 Nightmare 4:29
4 Jesus Fall 3:28
5 God Is A ... 2:59
6 Left To Rot 3:34
7 Burn By The Cross 4:48
8 To Escape Is To Die 3:54
9 Take The Throne 5:21
10 Penetralia 6:34

EAC-Log, CUE-Sheed & NFO:

Click to open spoiler
Exact Audio Copy V0.99 prebeta 5 from 4. May 2009

EAC extraction logfile from 3. January 2012, 15:21

Hypocrisy / Penetralia (NB 067, Germany)

Used drive : Optiarc BD RW BD-5740H Adapter: 0 ID: 1

Read mode : Secure
Utilize accurate stream : Yes
Defeat audio cache : Yes
Make use of C2 pointers : No

Read offset correction : 48
Overread into Lead-In and Lead-Out : No
Fill up missing offset samples with silence : Yes
Delete leading and trailing silent blocks : No
Null samples used in CRC calculations : Yes
Used interface : Native Win32 interface for Win NT & 2000

Used output format : User Defined Encoder
Selected bitrate : 128 kBit/s
Quality : High
Add ID3 tag : No
Command line compressor : C:\Program Files (x86)\FLAC\flac.exe
Additional command line options : -T “DATE=%y” -T “GENRE=%m” -8 -V %s

TOC of the extracted CD

Track | Start | Length | Start sector | End sector
———————————————————
1 | 0:00.00 | 3:49.55 | 0 | 17229
2 | 3:49.55 | 3:26.57 | 17230 | 32736
3 | 7:16.37 | 4:28.73 | 32737 | 52909
4 | 11:45.35 | 3:28.05 | 52910 | 68514
5 | 15:13.40 | 2:58.62 | 68515 | 81926
6 | 18:12.27 | 3:34.03 | 81927 | 97979
7 | 21:46.30 | 4:47.40 | 97980 | 119544
8 | 26:33.70 | 3:54.00 | 119545 | 137094
9 | 30:27.70 | 5:20.60 | 137095 | 161154
10 | 35:48.55 | 6:33.70 | 161155 | 190699

Range status and errors

Selected range

Filename C:\Ripped By liveevil\Hypocrisy – Penetralia (NB 067, Germany).wav

Peak level 100.0 %
Range quality 100.0 %
Test CRC 21105F57
Copy CRC 21105F57
Copy OK

No errors occurred

AccurateRip summary

Track 1 accurately ripped (confidence 5) [61C0C895]
Track 2 accurately ripped (confidence 5) [FE71A4F5]
Track 3 accurately ripped (confidence 5) [F1B5446C]
Track 4 accurately ripped (confidence 5) [B8ECB425]
Track 5 accurately ripped (confidence 5) [BF17E844]
Track 6 accurately ripped (confidence 5) [7FD9B5A4]
Track 7 accurately ripped (confidence 5) [C0010460]
Track 8 accurately ripped (confidence 5) [175B9F5B]
Track 9 accurately ripped (confidence 5) [B07FB20D]
Track 10 accurately ripped (confidence 5) [675585E5]

All tracks accurately ripped

End of status report

REM GENRE “Death Metal”
REM DATE 1992
REM DISCID 7E09EE0A
REM COMMENT “ExactAudioCopy v0.99pb5”
PERFORMER “Hypocrisy”
TITLE “Penetralia (1992 Nuclear Blast, NB 067, Germany)”
FILE “Hypocrisy – Penetralia.flac” WAVE
TRACK 01 AUDIO
TITLE “Impotent God”
PERFORMER “Hypocrisy”
INDEX 01 00:00:00
TRACK 02 AUDIO
TITLE “Suffering Souls”
PERFORMER “Hypocrisy”
INDEX 00 03:48:05
INDEX 01 03:49:55
TRACK 03 AUDIO
TITLE “Nightmare”
PERFORMER “Hypocrisy”
INDEX 00 07:15:37
INDEX 01 07:16:37
TRACK 04 AUDIO
TITLE “Jesus Fall”
PERFORMER “Hypocrisy”
INDEX 00 11:44:35
INDEX 01 11:45:35
TRACK 05 AUDIO
TITLE “God Is A …”
PERFORMER “Hypocrisy”
INDEX 00 15:11:65
INDEX 01 15:13:40
TRACK 06 AUDIO
TITLE “Left To Rot”
PERFORMER “Hypocrisy”
INDEX 00 18:10:25
INDEX 01 18:12:27
TRACK 07 AUDIO
TITLE “Burn By The Cross”
PERFORMER “Hypocrisy”
INDEX 00 21:45:32
INDEX 01 21:46:30
TRACK 08 AUDIO
TITLE “To Escape Is To Die”
PERFORMER “Hypocrisy”
INDEX 00 26:32:27
INDEX 01 26:33:70
TRACK 09 AUDIO
TITLE “Take The Throne”
PERFORMER “Hypocrisy”
INDEX 00 30:26:67
INDEX 01 30:27:70
TRACK 10 AUDIO
TITLE “Penetralia”
PERFORMER “Hypocrisy”
INDEX 00 35:47:07
INDEX 01 35:48:55


Leave a Reply

Your email address will not be published. Required fields are marked *

Enter the text from the image below
 

This site uses Akismet to reduce spam. Learn how your comment data is processed.