Hypocrisy – Into The Abyss (Japanese Edition)




No Cover available

Artist: Hypocrisy
Year: 2000
Genre: Metal
Notes: Discogs
Add. Notes: Japanese Edition
Watch Songs on: YouTube
Cover incl.: Yes
Encoder: FLAC
Bitrate: ~1100 kBit/s (44.1 kHz/16 Bit/s)
Log & Cue incl.: Yes/Yes
Size: 426,6 MB
Password: “slam” (without ” “)


All Downloads/Hosters are compatible

Download 1
KatFile.com
Turbobit.net
Rapidgator.net
FileFactory.com
Download 2
KatFile.com
Turbobit.net
Rapidgator.net
FileFactory.com

Tracklist:

1 Legions Descend 3:53
2 Blinded 4:17
3 Resurrected 5:36
4 Unleash The Beast 3:28
5 Digital Prophecy 3:07
6 Fire In The Sky 4:58
7 Total Eclipse 3:09
8 Unfold The Sorrow 4:27
9 Sodomized 3:18
10 Deathrow (No Regrets) 5:46

Bonus Track:
11 Roswell 47 (Demo Version) 4:47

EAC-Log, CUE-Sheed & NFO:

Click to open spoiler
Exact Audio Copy V1.0 beta 1 from 15. November 2010

EAC extraction logfile from 22. June 2011, 19:06

Hypocrisy / Into The Abyss (Avalon, MICP-10210, Japan)

Used drive : Optiarc BD RW BD-5740H Adapter: 0 ID: 1

Read mode : Secure
Utilize accurate stream : Yes
Defeat audio cache : Yes
Make use of C2 pointers : No

Read offset correction : 48
Overread into Lead-In and Lead-Out : No
Fill up missing offset samples with silence : Yes
Delete leading and trailing silent blocks : No
Null samples used in CRC calculations : Yes
Used interface : Native Win32 interface for Win NT & 2000

Used output format : User Defined Encoder
Selected bitrate : 128 kBit/s
Quality : High
Add ID3 tag : No
Command line compressor : C:\Program Files (x86)\Exact Audio Copy\Flac\flac.exe
Additional command line options : -T “DATE=%y” -T “GENRE=%m” -8 -V %s

TOC of the extracted CD

Track | Start | Length | Start sector | End sector
———————————————————
1 | 0:00.00 | 3:53.57 | 0 | 17531
2 | 3:53.57 | 4:17.65 | 17532 | 36871
3 | 8:11.47 | 5:36.03 | 36872 | 62074
4 | 13:47.50 | 3:29.00 | 62075 | 77749
5 | 17:16.50 | 3:07.25 | 77750 | 91799
6 | 20:24.00 | 4:58.30 | 91800 | 114179
7 | 25:22.30 | 3:09.27 | 114180 | 128381
8 | 28:31.57 | 4:27.70 | 128382 | 148476
9 | 32:59.52 | 3:18.30 | 148477 | 163356
10 | 36:18.07 | 5:46.41 | 163357 | 189347
11 | 42:04.48 | 4:47.08 | 189348 | 210880

Range status and errors

Selected range

Filename C:\Ripped By liveevil\Hypocrisy – Into The Abyss (Avalon, MICP-10210, Japan).wav

Peak level 97.9 %
Extraction speed 1.5 X
Range quality 100.0 %
Test CRC A74CA3EC
Copy CRC A74CA3EC
Copy OK

No errors occurred

AccurateRip summary

Track 1 not present in database
Track 2 not present in database
Track 3 not present in database
Track 4 not present in database
Track 5 not present in database
Track 6 not present in database
Track 7 not present in database
Track 8 not present in database
Track 9 not present in database
Track 10 not present in database
Track 11 not present in database

None of the tracks are present in the AccurateRip database

End of status report

==== Log checksum 5670EEAAD8B91313E924FC970082ED8127FCADEE4B914C9DE24B35EAE63EC8A5 ====

REM GENRE “Death Metal”
REM DATE 2000
REM DISCID 8B0AFB0B
REM COMMENT “ExactAudioCopy v0.99pb5”
PERFORMER “Hypocrisy”
TITLE “Into The Abyss (2000 Avalon / Marquee, MICP-10210, Japan)”
FILE “Hypocrisy – Into The Abyss.flac” WAVE
TRACK 01 AUDIO
TITLE “Legions Descend”
PERFORMER “Hypocrisy”
INDEX 01 00:00:00
TRACK 02 AUDIO
TITLE “Blinded”
PERFORMER “Hypocrisy”
INDEX 01 03:53:57
TRACK 03 AUDIO
TITLE “Resurrected”
PERFORMER “Hypocrisy”
INDEX 01 08:11:47
TRACK 04 AUDIO
TITLE “Unleash The Beast”
PERFORMER “Hypocrisy”
INDEX 01 13:47:50
TRACK 05 AUDIO
TITLE “Digital Prophecy”
PERFORMER “Hypocrisy”
INDEX 01 17:16:50
TRACK 06 AUDIO
TITLE “Fire In The Sky”
PERFORMER “Hypocrisy”
INDEX 01 20:24:00
TRACK 07 AUDIO
TITLE “Total Eclipse”
PERFORMER “Hypocrisy”
INDEX 01 25:22:30
TRACK 08 AUDIO
TITLE “Unfold The Sorrow”
PERFORMER “Hypocrisy”
INDEX 01 28:31:57
TRACK 09 AUDIO
TITLE “Sodomized”
PERFORMER “Hypocrisy”
INDEX 01 32:59:52
TRACK 10 AUDIO
TITLE “Deathrow (No Regrets)”
PERFORMER “Hypocrisy”
INDEX 01 36:18:07
TRACK 11 AUDIO
TITLE “Roswell 47 (Demo – Bonus Track)”
PERFORMER “Hypocrisy”
INDEX 01 42:04:48


Leave a Reply

Your email address will not be published. Required fields are marked *

Enter the text from the image below
 

This site uses Akismet to reduce spam. Learn how your comment data is processed.