Hypocrisy – Hypocrisy (Japanese Edition)




No Cover available


Artist: Hypocrisy
Year: 1999
Genre: Metal
Notes: Discogs
Add. Notes: Japanese Edition
Watch Songs on: YouTube
Cover incl.: Yes
Encoder: FLAC
Bitrate: ~1100 kBit/s (44.1 kHz/16 Bit/s)
Log & Cue incl.: Yes/Yes
Size: 559,7 MB
Password: “slam” (without ” “)


All Downloads/Hosters are compatible

Download 1
KatFile.com
Turbobit.net
Rapidgator.net
FileFactory.com
Download 2
KatFile.com
Turbobit.net
Rapidgator.net
FileFactory.com

Tracklist:

1 Fractured Millennium 5:14
2 Apocalyptic Hybrid 4:04
3 Fusion Programmed Minds 4:39
4 Elastic Inverted Visions 6:16
5 Reversed Reflections 4:28
6 Until The End 5:53
7 Paranormal Mysteria 4:38
8 Time Warp 3:51
9 Disconnected Magnetic Corridors 5:24
10 Paled Empty Sphere 6:15
11 Selfinflicted Overload 4:38

Bonus Tracks
12 Elastic Inverted Visions (Demo Version) 6:04
13 Falling Through The Ground 4:00

EAC-Log, CUE-Sheed & NFO:

Click to open spoiler
Exact Audio Copy V1.0 beta 1 from 15. November 2010

EAC extraction logfile from 28. April 2011, 19:06

Hypocrisy / Hypocrisy (Avalon, MICY-1142, Japan)

Used drive : Optiarc BD RW BD-5740H Adapter: 0 ID: 1

Read mode : Secure
Utilize accurate stream : Yes
Defeat audio cache : Yes
Make use of C2 pointers : No

Read offset correction : 48
Overread into Lead-In and Lead-Out : No
Fill up missing offset samples with silence : Yes
Delete leading and trailing silent blocks : No
Null samples used in CRC calculations : Yes
Used interface : Native Win32 interface for Win NT & 2000

Used output format : User Defined Encoder
Selected bitrate : 128 kBit/s
Quality : High
Add ID3 tag : No
Command line compressor : C:\Program Files (x86)\Exact Audio Copy\Flac\flac.exe
Additional command line options : -T “DATE=%y” -T “GENRE=%m” -8 -V %s

TOC of the extracted CD

Track | Start | Length | Start sector | End sector
———————————————————
1 | 0:00.00 | 5:14.05 | 0 | 23554
2 | 5:14.05 | 4:04.59 | 23555 | 41913
3 | 9:18.64 | 4:38.60 | 41914 | 62823
4 | 13:57.49 | 6:16.03 | 62824 | 91026
5 | 20:13.52 | 4:28.59 | 91027 | 111185
6 | 24:42.36 | 5:53.71 | 111186 | 137731
7 | 30:36.32 | 4:38.40 | 137732 | 158621
8 | 35:14.72 | 3:51.42 | 158622 | 175988
9 | 39:06.39 | 5:24.67 | 175989 | 200355
10 | 44:31.31 | 6:15.44 | 200356 | 228524
11 | 50:47.00 | 4:46.13 | 228525 | 249987
12 | 55:33.13 | 6:04.25 | 249988 | 277312
13 | 61:37.38 | 4:00.25 | 277313 | 295337

Range status and errors

Selected range

Filename C:\Ripped By liveevil\Hypocrisy – Hypocrisy (Avalon, MICY-1142, Japan).wav

Peak level 100.0 %
Extraction speed 0.9 X
Range quality 100.0 %
Test CRC 4F5E9D4C
Copy CRC 4F5E9D4C
Copy OK

No errors occurred

End of status report

==== Log checksum C39C794A801C5DAB8AACF49236AFC7DEEC3B12FEA6B8EADE8DC66029460F917E ====

REM GENRE “Death Metal”
REM DATE 1999
REM DISCID BF0F610D
REM COMMENT “ExactAudioCopy v0.99pb5”
PERFORMER “Hypocrisy”
TITLE “Hypocrisy (1999 Avalon / Marquee, MICY-1142, Japan)”
FILE “Hypocrisy – Hypocrisy.flac” WAVE
TRACK 01 AUDIO
TITLE “Fractured Millenium”
PERFORMER “Hypocrisy”
INDEX 01 00:00:00
TRACK 02 AUDIO
TITLE “Apocalyptic Hybrid”
PERFORMER “Hypocrisy”
INDEX 01 05:14:05
TRACK 03 AUDIO
TITLE “Fusion Programmed Minds”
PERFORMER “Hypocrisy”
INDEX 01 09:18:64
TRACK 04 AUDIO
TITLE “Elastic Inverted Visions”
PERFORMER “Hypocrisy”
INDEX 01 13:57:49
TRACK 05 AUDIO
TITLE “Reversed Reflections”
PERFORMER “Hypocrisy”
INDEX 01 20:13:52
TRACK 06 AUDIO
TITLE “Until The End”
PERFORMER “Hypocrisy”
INDEX 01 24:42:36
TRACK 07 AUDIO
TITLE “Paranormal Mysteria”
PERFORMER “Hypocrisy”
INDEX 01 30:36:32
TRACK 08 AUDIO
TITLE “Time Warp”
PERFORMER “Hypocrisy”
INDEX 01 35:14:72
TRACK 09 AUDIO
TITLE “Disconnected Magnetic Corridors”
PERFORMER “Hypocrisy”
INDEX 01 39:06:39
TRACK 10 AUDIO
TITLE “Paled Empty Sphere”
PERFORMER “Hypocrisy”
INDEX 01 44:31:31
TRACK 11 AUDIO
TITLE “Selfinflicted Overload”
PERFORMER “Hypocrisy”
INDEX 01 50:47:00
TRACK 12 AUDIO
TITLE “Elastic Inverted Visions (Demo – Bonus Track)”
PERFORMER “Hypocrisy”
INDEX 00 55:28:13
INDEX 01 55:33:13
TRACK 13 AUDIO
TITLE “Falling Through The Ground (Bonus Track)”
PERFORMER “Hypocrisy”
INDEX 01 61:37:38


Leave a Reply

Your email address will not be published. Required fields are marked *

Enter the text from the image below
 

This site uses Akismet to reduce spam. Learn how your comment data is processed.