Hypocrisy – Hell Over Sofia (20 Years Of Chaos And Confusion) (Limited Edition)




No Cover available

Artist: Hypocrisy
Year: 2011
Genre: Metal
Notes: Discogs
Add. Notes: Limited Edition
Watch Songs on: YouTube
Cover incl.: Yes
Encoder: FLAC
Bitrate: ~1000 kBit/s (44.1 kHz/16 Bit/s)
Log & Cue incl.: Yes/Yes
Size: 814,28 MB
Password: “slam” (without ” “)


All Downloads/Hosters are compatible

Download 1
KatFile.com
Turbobit.net
FileFactory.com
Rapidgator.net
Download 2
KatFile.com
Turbobit.net
FileFactory.com
Rapidgator.net

Tracklist:

CD I: Hell Over Sofia
1 Valley Of The Damned 5:41
2 Hang Him High 4:34
3 Fractured Millennium 5:30
4 Adjusting The Sun 5:56
5 Eraser 4:46
6 Pleasure Of Molestation 2:45
7 Osculum Obscenum 2:53
8 Penetralia 1:44
9 Apocalypse 4:27
10 Fourth Dimension 5:13
11 Killing Art 3:14

CD II: Hell Over Sofia
1 A Coming Race 5:40
2 Let The Knife Do The Talking 4:46
3 Weed Out The Weak 4:26
4 Fire In The Sky 7:38
5 The Final Chapter 5:39
6 Warpath 4:30
7 Roswell 47 6:26

EAC-Log, CUE-Sheed & NFO:

Click to open spoiler
Exact Audio Copy V0.99 prebeta 5 from 4. May 2009

EAC extraction logfile from 13. May 2012, 3:33

Hypocrisy / Hell Over Sofia (CD 1)

Used drive : Optiarc BD RW BD-5740H Adapter: 0 ID: 1

Read mode : Secure
Utilize accurate stream : Yes
Defeat audio cache : Yes
Make use of C2 pointers : No

Read offset correction : 48
Overread into Lead-In and Lead-Out : No
Fill up missing offset samples with silence : Yes
Delete leading and trailing silent blocks : No
Null samples used in CRC calculations : Yes
Used interface : Native Win32 interface for Win NT & 2000

Used output format : User Defined Encoder
Selected bitrate : 128 kBit/s
Quality : High
Add ID3 tag : No
Command line compressor : C:\Program Files (x86)\FLAC\flac.exe
Additional command line options : -T “DATE=%y” -T “GENRE=%m” -8 -V %s

TOC of the extracted CD

Track | Start | Length | Start sector | End sector
———————————————————
1 | 0:00.00 | 5:41.18 | 0 | 25592
2 | 5:41.18 | 4:33.43 | 25593 | 46110
3 | 10:14.61 | 5:29.73 | 46111 | 70858
4 | 15:44.59 | 5:55.61 | 70859 | 97544
5 | 21:40.45 | 4:45.61 | 97545 | 118980
6 | 26:26.31 | 2:45.31 | 118981 | 131386
7 | 29:11.62 | 2:53.13 | 131387 | 144374
8 | 32:05.00 | 1:43.71 | 144375 | 152170
9 | 33:48.71 | 4:27.14 | 152171 | 172209
10 | 38:16.10 | 5:12.59 | 172210 | 195668
11 | 43:28.69 | 3:13.54 | 195669 | 210197

Range status and errors

Selected range

Filename C:\Ripped By liveevil\Hypocrisy – Hell Over Sofia (CD 1).wav

Peak level 100.0 %
Range quality 99.9 %
Test CRC 848D77D4
Copy CRC 848D77D4
Copy OK

No errors occurred

AccurateRip summary

Track 1 not present in database
Track 2 not present in database
Track 3 not present in database
Track 4 not present in database
Track 5 not present in database
Track 6 not present in database
Track 7 not present in database
Track 8 not present in database
Track 9 not present in database
Track 10 not present in database
Track 11 not present in database

None of the tracks are present in the AccurateRip database

End of status report

Exact Audio Copy V0.99 prebeta 5 from 4. May 2009

EAC extraction logfile from 13. May 2012, 4:03

Hypocrisy / Hell Over Sofia (CD 2)

Used drive : Optiarc BD RW BD-5740H Adapter: 0 ID: 1

Read mode : Secure
Utilize accurate stream : Yes
Defeat audio cache : Yes
Make use of C2 pointers : No

Read offset correction : 48
Overread into Lead-In and Lead-Out : No
Fill up missing offset samples with silence : Yes
Delete leading and trailing silent blocks : No
Null samples used in CRC calculations : Yes
Used interface : Native Win32 interface for Win NT & 2000

Used output format : User Defined Encoder
Selected bitrate : 128 kBit/s
Quality : High
Add ID3 tag : No
Command line compressor : C:\Program Files (x86)\FLAC\flac.exe
Additional command line options : -T “DATE=%y” -T “GENRE=%m” -8 -V %s

TOC of the extracted CD

Track | Start | Length | Start sector | End sector
———————————————————
1 | 0:00.00 | 5:39.47 | 0 | 25471
2 | 5:39.47 | 4:45.39 | 25472 | 46885
3 | 10:25.11 | 4:26.28 | 46886 | 66863
4 | 14:51.39 | 7:37.47 | 66864 | 101185
5 | 22:29.11 | 5:39.21 | 101186 | 126631
6 | 28:08.32 | 4:29.54 | 126632 | 146860
7 | 32:38.11 | 6:26.31 | 146861 | 175841

Range status and errors

Selected range

Filename C:\Ripped By liveevil\Hypocrisy – Hell Over Sofia (CD 2).wav

Peak level 100.0 %
Range quality 100.0 %
Test CRC 4E445FF8
Copy CRC 4E445FF8
Copy OK

No errors occurred

AccurateRip summary

Track 1 not present in database
Track 2 not present in database
Track 3 not present in database
Track 4 not present in database
Track 5 not present in database
Track 6 not present in database
Track 7 not present in database

None of the tracks are present in the AccurateRip database

End of status report

REM GENRE “Death Metal”
REM DATE 2011
REM DISCID 8E0AF20B
REM COMMENT “ExactAudioCopy v0.99pb5”
PERFORMER “Hypocrisy”
TITLE “Hypocrisy – Hell Over Sofia – 20 Years Of Chaos And Confusion (2011 Nuclear Blast, NB 2560-8, BD/2CD Boxset, Germany, CD 1)”
FILE “Hypocrisy – Hell Over Sofia (CD 1).flac” WAVE
TRACK 01 AUDIO
TITLE “Valley Of The Damned”
PERFORMER “Hypocrisy”
INDEX 01 00:00:00
TRACK 02 AUDIO
TITLE “Hang Him High”
PERFORMER “Hypocrisy”
INDEX 01 05:41:18
TRACK 03 AUDIO
TITLE “Fractured Millennium”
PERFORMER “Hypocrisy”
INDEX 01 10:14:61
TRACK 04 AUDIO
TITLE “Adjusting The Sun”
PERFORMER “Hypocrisy”
INDEX 01 15:44:59
TRACK 05 AUDIO
TITLE “Eraser”
PERFORMER “Hypocrisy”
INDEX 01 21:40:45
TRACK 06 AUDIO
TITLE “Pleasure Of Molestation”
PERFORMER “Hypocrisy”
INDEX 01 26:26:31
TRACK 07 AUDIO
TITLE “Osculum Obscenum”
PERFORMER “Hypocrisy”
INDEX 01 29:11:62
TRACK 08 AUDIO
TITLE “Penetralia”
PERFORMER “Hypocrisy”
INDEX 01 32:05:00
TRACK 09 AUDIO
TITLE “Apocalypse”
PERFORMER “Hypocrisy”
INDEX 01 33:48:71
TRACK 10 AUDIO
TITLE “Fourth Dimension”
PERFORMER “Hypocrisy”
INDEX 01 38:16:10
TRACK 11 AUDIO
TITLE “Killing Art”
PERFORMER “Hypocrisy”
INDEX 01 43:28:69

REM GENRE “Death Metal”
REM DATE 2011
REM DISCID 57092807
REM COMMENT “ExactAudioCopy v0.99pb5”
PERFORMER “Hypocrisy”
TITLE “Hypocrisy – Hell Over Sofia – 20 Years Of Chaos And Confusion (2011 Nuclear Blast, NB 2560-8, BD/2CD Boxset, Germany, CD 2)”
FILE “Hypocrisy – Hell Over Sofia (CD 2).flac” WAVE
TRACK 01 AUDIO
TITLE “A Coming Race”
PERFORMER “Hypocrisy”
INDEX 01 00:00:00
TRACK 02 AUDIO
TITLE “Let The Knife Do The Talking”
PERFORMER “Hypocrisy”
INDEX 01 05:39:47
TRACK 03 AUDIO
TITLE “Weed Out The Weak”
PERFORMER “Hypocrisy”
INDEX 01 10:25:11
TRACK 04 AUDIO
TITLE “Fire In The Sky”
PERFORMER “Hypocrisy”
INDEX 01 14:51:39
TRACK 05 AUDIO
TITLE “The Final Chapter”
PERFORMER “Hypocrisy”
INDEX 01 22:29:11
TRACK 06 AUDIO
TITLE “Warpath”
PERFORMER “Hypocrisy”
INDEX 01 28:08:32
TRACK 07 AUDIO
TITLE “Roswell 47”
PERFORMER “Hypocrisy”
INDEX 01 32:38:11


Leave a Reply

Your email address will not be published. Required fields are marked *

Enter the text from the image below
 

This site uses Akismet to reduce spam. Learn how your comment data is processed.