Hypocrisy – 10 Years Of Chaos And Confusion (Promo)




No Cover available

Artist: Hypocrisy
Year: 2001
Genre: Metal
Notes: Discogs
Add. Notes: Promo
Cover incl.: Yes
Encoder: FLAC
Bitrate: ~1100 kBit/s (44.1 kHz/16 Bit/s)
Log & Cue incl.: Yes/Yes
Size: 560,3 MB
Password: “slam” (without ” “)


All Downloads/Hosters are compatible

Download 1
KatFile.com
Turbobit.net
FileFactory.com
Rapidgator.net
Download 2
KatFile.com
Turbobit.net
FileFactory.com
Rapidgator.net

Tracklist:

1 Penetralia 5:26
2 The Fourth Dimension 5:29
3 Osculum Obscenum 4:55
4 Apocalypse 5:26
5 Killing Art 2:57
6 Deathrow (No Regrets) 5:47
7 Left To Rot 3:36
8 Until The End 5:54
9 Pleasure Of Molestation 4:38
10 A Coming Race 5:07
11 Fractured Millennium 5:15
12 Roswell 47 3:56
13 Fire In The Sky 4:48
14 The Final Chapter 5:21

EAC-Log, CUE-Sheed & NFO:

Click to open spoiler
Exact Audio Copy V0.99 prebeta 5 from 4. May 2009

EAC extraction logfile from 12. August 2012, 14:54

Hypocrisy / 10 Years of Chaos And Confusion

Used drive : Optiarc BD RW BD-5740H Adapter: 0 ID: 1

Read mode : Secure
Utilize accurate stream : Yes
Defeat audio cache : Yes
Make use of C2 pointers : No

Read offset correction : 48
Overread into Lead-In and Lead-Out : No
Fill up missing offset samples with silence : Yes
Delete leading and trailing silent blocks : No
Null samples used in CRC calculations : Yes
Used interface : Native Win32 interface for Win NT & 2000

Used output format : User Defined Encoder
Selected bitrate : 128 kBit/s
Quality : High
Add ID3 tag : No
Command line compressor : C:\Program Files (x86)\FLAC\flac.exe
Additional command line options : -T “DATE=%y” -T “GENRE=%m” -8 -V %s

TOC of the extracted CD

Track | Start | Length | Start sector | End sector
———————————————————
1 | 0:00.00 | 5:26.27 | 0 | 24476
2 | 5:26.27 | 5:28.66 | 24477 | 49142
3 | 10:55.18 | 4:55.36 | 49143 | 71303
4 | 15:50.54 | 5:26.12 | 71304 | 95765
5 | 21:16.66 | 2:57.07 | 95766 | 109047
6 | 24:13.73 | 5:46.70 | 109048 | 135067
7 | 30:00.68 | 3:36.34 | 135068 | 151301
8 | 33:37.27 | 5:54.14 | 151302 | 177865
9 | 39:31.41 | 4:37.50 | 177866 | 198690
10 | 44:09.16 | 5:06.56 | 198691 | 221696
11 | 49:15.72 | 5:14.43 | 221697 | 245289
12 | 54:30.40 | 3:56.36 | 245290 | 263025
13 | 58:27.01 | 4:48.16 | 263026 | 284641
14 | 63:15.17 | 5:21.23 | 284642 | 308739

Range status and errors

Selected range

Filename C:\Ripped By liveevil\Hypocrisy – 10 Years of Chaos And Confusion.wav

Peak level 99.6 %
Range quality 100.0 %
Test CRC 4496D8D7
Copy CRC 4496D8D7
Copy OK

No errors occurred

AccurateRip summary

Track 1 accurately ripped (confidence 2) [59E9FA15]
Track 2 accurately ripped (confidence 3) [445E2F7C]
Track 3 accurately ripped (confidence 3) [C7E2FD71]
Track 4 accurately ripped (confidence 3) [FA995827]
Track 5 accurately ripped (confidence 3) [DB5BB410]
Track 6 accurately ripped (confidence 3) [5310DBBF]
Track 7 accurately ripped (confidence 3) [D5F1B50E]
Track 8 accurately ripped (confidence 3) [A2A0E323]
Track 9 accurately ripped (confidence 3) [FB6D4C7C]
Track 10 accurately ripped (confidence 3) [4489E426]
Track 11 accurately ripped (confidence 3) [DA63C8A5]
Track 12 accurately ripped (confidence 3) [D8B1496E]
Track 13 accurately ripped (confidence 3) [0E2BC66E]
Track 14 accurately ripped (confidence 3) [29D60A56]

All tracks accurately ripped

End of status report

REM GENRE “Death Metal”
REM DATE 2001
REM DISCID D610140E
REM COMMENT “ExactAudioCopy v0.99pb5”
PERFORMER “Hypocrisy”
TITLE “10 Years of Chaos And Confusion (2001 Nuclear Blast, NB 630-2, Promo, Germany)”
FILE “Hypocrisy – 10 Years of Chaos And Confusion.flac” WAVE
TRACK 01 AUDIO
TITLE “Penetralia”
PERFORMER “Hypocrisy”
INDEX 01 00:00:00
TRACK 02 AUDIO
TITLE “The Fourth Dimension”
PERFORMER “Hypocrisy”
INDEX 01 05:26:27
TRACK 03 AUDIO
TITLE “Osculum Obscenum”
PERFORMER “Hypocrisy”
INDEX 01 10:55:18
TRACK 04 AUDIO
TITLE “Apocalypse”
PERFORMER “Hypocrisy”
INDEX 00 15:48:71
INDEX 01 15:50:54
TRACK 05 AUDIO
TITLE “Killing Art”
PERFORMER “Hypocrisy”
INDEX 00 21:16:39
INDEX 01 21:16:66
TRACK 06 AUDIO
TITLE “Deathrow (No Regrets)”
PERFORMER “Hypocrisy”
INDEX 00 24:12:55
INDEX 01 24:13:73
TRACK 07 AUDIO
TITLE “Left To Rot”
PERFORMER “Hypocrisy”
INDEX 00 30:00:14
INDEX 01 30:00:68
TRACK 08 AUDIO
TITLE “Until The End”
PERFORMER “Hypocrisy”
INDEX 00 33:36:29
INDEX 01 33:37:27
TRACK 09 AUDIO
TITLE “Pleasure Of Molestation”
PERFORMER “Hypocrisy”
INDEX 00 39:31:05
INDEX 01 39:31:41
TRACK 10 AUDIO
TITLE “A Coming Race”
PERFORMER “Hypocrisy”
INDEX 00 44:08:06
INDEX 01 44:09:16
TRACK 11 AUDIO
TITLE “Fractured Millennium”
PERFORMER “Hypocrisy”
INDEX 01 49:15:72
TRACK 12 AUDIO
TITLE “Roswell 47”
PERFORMER “Hypocrisy”
INDEX 01 54:30:40
TRACK 13 AUDIO
TITLE “Fire In The Sky”
PERFORMER “Hypocrisy”
INDEX 00 58:26:28
INDEX 01 58:27:01
TRACK 14 AUDIO
TITLE “The Final Chapter”
PERFORMER “Hypocrisy”
INDEX 01 63:15:17


Leave a Reply

Your email address will not be published. Required fields are marked *

Enter the text from the image below
 

This site uses Akismet to reduce spam. Learn how your comment data is processed.