Hoobastank – Hoobastank




No Cover available

Artist: Hoobastank
Year: 2001
Genre: Rock
Notes: Discogs
Add. Notes:
Watch Songs on: YouTube
Cover incl.: Yes
Encoder: FLAC
Bitrate: ~1000 kBit/s (44.1 kHz/16 Bit/s)
Log & Cue incl.: Yes/Yes
Size: 279,1 MB
Password: “slam” (without ” “)


All Downloads/Hosters are compatible

Download 1
KatFile.com
Turbobit.net
Rapidgator.net
FileFactory.com
Download 2
KatFile.com
Turbobit.net
Rapidgator.net
FileFactory.com

Tracklist:

1 Crawling In The Dark 2:55
2 Remember Me 3:34
3 Running Away 2:58
4 Pieces 3:15
5 Let You Know 3:39
6 Better 2:53
7 Ready For You 3:07
8 Up And Gone 3:21
9 Too Little Too Late 3:15
10 Hello Again 3:02
11 To Be With You 4:02
12 Give It Back 2:58

EAC-Log, CUE-Sheed & NFO:

Click to open spoiler
Exact Audio Copy V0.99 prebeta 4 from 23. January 2008

EAC extraction logfile from 23. June 2008, 0:04

Hoobastank / Hoobastank

Used drive : Optiarc DVD RW AD-7203S Adapter: 5 ID: 0

Read mode : Secure
Utilize accurate stream : Yes
Defeat audio cache : Yes
Make use of C2 pointers : No

Read offset correction : 48
Overread into Lead-In and Lead-Out : No
Fill up missing offset samples with silence : Yes
Delete leading and trailing silent blocks : No
Null samples used in CRC calculations : No
Used interface : Native Win32 interface for Win NT & 2000

Used output format : Internal WAV Routines
Sample format : 44.100 Hz; 16 Bit; Stereo

TOC of the extracted CD

Track | Start | Length | Start sector | End sector
———————————————————
1 | 0:00.00 | 2:55.02 | 0 | 13126
2 | 2:55.02 | 3:34.04 | 13127 | 29180
3 | 6:29.06 | 2:58.30 | 29181 | 42560
4 | 9:27.36 | 3:15.48 | 42561 | 57233
5 | 12:43.09 | 3:39.11 | 57234 | 73669
6 | 16:22.20 | 2:53.36 | 73670 | 86680
7 | 19:15.56 | 3:07.46 | 86681 | 100751
8 | 22:23.27 | 3:21.09 | 100752 | 115835
9 | 25:44.36 | 3:15.41 | 115836 | 130501
10 | 29:00.02 | 3:02.22 | 130502 | 144173
11 | 32:02.24 | 4:02.55 | 144174 | 162378
12 | 36:05.04 | 2:56.14 | 162379 | 175592

Range status and errors

Selected range

Filename C:\Users\atag\Documents\Hoobastank – Hoobastank.wav

Peak level 100.0 %
Range quality 100.0 %
Test CRC D2471E9B
Copy CRC D2471E9B
Copy OK

No errors occurred

AccurateRip summary

Track 1 cannot be verified as accurate (confidence 10) [B576EE91], AccurateRip returned [C020FFA9]
Track 2 cannot be verified as accurate (confidence 10) [46D8A2AF], AccurateRip returned [BE020459]
Track 3 cannot be verified as accurate (confidence 10) [A1F82EFA], AccurateRip returned [11280E17]
Track 4 cannot be verified as accurate (confidence 10) [141C7B37], AccurateRip returned [AA819AB6]
Track 5 cannot be verified as accurate (confidence 10) [C521D2F7], AccurateRip returned [246BC553]
Track 6 cannot be verified as accurate (confidence 10) [AED89CDA], AccurateRip returned [22239553]
Track 7 cannot be verified as accurate (confidence 10) [4645FB7F], AccurateRip returned [7CDC9561]
Track 8 cannot be verified as accurate (confidence 10) [79087C73], AccurateRip returned [6CE800E4]
Track 9 cannot be verified as accurate (confidence 10) [A33DB407], AccurateRip returned [7AF52FEB]
Track 10 cannot be verified as accurate (confidence 10) [BCD84F50], AccurateRip returned [75195325]
Track 11 cannot be verified as accurate (confidence 10) [3136C4E4], AccurateRip returned [DFAE5DE6]
Track 12 cannot be verified as accurate (confidence 9) [D0A37C59], AccurateRip returned [196A49BF]

No tracks could be verified as accurate
You may have a different pressing from the one(s) in the database

End of status report

REM GENRE “Alt. Rock”
REM DATE 2001
REM DISCID B209250C
REM COMMENT “ExactAudioCopy v0.99pb4”
PERFORMER “Hoobastank”
TITLE “Hoobastank”
FILE “Hoobastank – Hoobastank.wav” WAVE
TRACK 01 AUDIO
TITLE “Crawling In The Dark”
PERFORMER “Hoobastank”
FLAGS DCP
INDEX 01 00:00:00
TRACK 02 AUDIO
TITLE “Remember Me”
PERFORMER “Hoobastank”
FLAGS DCP
INDEX 01 02:55:02
TRACK 03 AUDIO
TITLE “Running Away”
PERFORMER “Hoobastank”
FLAGS DCP
INDEX 01 06:29:06
TRACK 04 AUDIO
TITLE “Pieces”
PERFORMER “Hoobastank”
FLAGS DCP
INDEX 01 09:27:36
TRACK 05 AUDIO
TITLE “Let You Know”
PERFORMER “Hoobastank”
FLAGS DCP
INDEX 01 12:43:09
TRACK 06 AUDIO
TITLE “Better”
PERFORMER “Hoobastank”
FLAGS DCP
INDEX 01 16:22:20
TRACK 07 AUDIO
TITLE “Ready For You”
PERFORMER “Hoobastank”
FLAGS DCP
INDEX 01 19:15:56
TRACK 08 AUDIO
TITLE “Up And Gone”
PERFORMER “Hoobastank”
FLAGS DCP
INDEX 01 22:23:27
TRACK 09 AUDIO
TITLE “Too Little Too Late”
PERFORMER “Hoobastank”
FLAGS DCP
INDEX 01 25:44:36
TRACK 10 AUDIO
TITLE “Hello Again”
PERFORMER “Hoobastank”
FLAGS DCP
INDEX 01 29:00:02
TRACK 11 AUDIO
TITLE “To Be With You”
PERFORMER “Hoobastank”
FLAGS DCP
INDEX 01 32:02:24
TRACK 12 AUDIO
TITLE “Give It Back”
PERFORMER “Hoobastank”
FLAGS DCP
INDEX 01 36:05:04


0

Publication author

offline 7 days

Chaos

3
Comments: 4Publics: 3565Registration: 02-02-2019
Spread the Download

Leave a Reply

Your email address will not be published. Required fields are marked *

Enter the text from the image below
 

This site uses Akismet to reduce spam. Learn how your comment data is processed.