Hoobastank – For(N)ever




No Cover available


Artist: Hoobastank
Year: 2009
Genre: Rock
Notes: Discogs
Add. Notes:
Watch Songs on: YouTube
Cover incl.: Yes
Encoder: FLAC
Bitrate: ~1100 kBit/s (44.1 kHz/16 Bit/s)
Log & Cue incl.: Yes/Yes
Size: 295,9 MB
Password: “slam” (without ” “)


All Downloads/Hosters are compatible

Download 1
KatFile.com
Turbobit.net
Rapidgator.net
FileFactory.com
Download 2
KatFile.com
Turbobit.net
Rapidgator.net
FileFactory.com

Tracklist:

1 My Turn 3:09
2 I Don't Think I Love You 3:39
3 So Close, So Far 3:14
4 All About You 2:55
5 The Letter 3:54
6 Tears Of Yesterday 3:56
7 Sick Of Hanging On 3:12
8 You're The One 3:55
9 Who The Hell Am I? 3:59
10 You Need To Be Here 3:01
11 Gone Gone Gone 3:36

EAC-Log, CUE-Sheed & NFO:

Click to open spoiler
Exact Audio Copy V0.99 prebeta 5 from 4. May 2009

EAC extraction logfile from 25. July 2009, 21:37

Hoobastank / For(n)ever

Used drive : Optiarc DVD RW AD-7203S Adapter: 5 ID: 0

Read mode : Secure
Utilize accurate stream : Yes
Defeat audio cache : Yes
Make use of C2 pointers : No

Read offset correction : 48
Overread into Lead-In and Lead-Out : No
Fill up missing offset samples with silence : Yes
Delete leading and trailing silent blocks : No
Null samples used in CRC calculations : Yes
Used interface : Installed external ASPI interface

Used output format : Internal WAV Routines
Sample format : 44.100 Hz; 16 Bit; Stereo

TOC of the extracted CD

Track | Start | Length | Start sector | End sector
———————————————————
1 | 0:00.00 | 3:09.08 | 0 | 14182
2 | 3:09.08 | 3:39.45 | 14183 | 30652
3 | 6:48.53 | 3:14.46 | 30653 | 45248
4 | 10:03.24 | 2:55.52 | 45249 | 58425
5 | 12:59.01 | 3:54.64 | 58426 | 76039
6 | 16:53.65 | 3:56.37 | 76040 | 93776
7 | 20:50.27 | 3:12.74 | 93777 | 108250
8 | 24:03.26 | 3:55.42 | 108251 | 125917
9 | 27:58.68 | 3:59.64 | 125918 | 143906
10 | 31:58.57 | 3:01.42 | 143907 | 157523
11 | 35:00.24 | 3:36.59 | 157524 | 173782

Range status and errors

Selected range

Filename F:\Music\Hoobastank\2009 – For(n)ever\Hoobastank – For(n)ever.wav

Peak level 100.0 %
Range quality 100.0 %
Test CRC 67893F16
Copy CRC 67893F16
Copy OK

No errors occurred

AccurateRip summary

Track 1 accurately ripped (confidence 15) [54636229]
Track 2 accurately ripped (confidence 15) [6E66F4DF]
Track 3 accurately ripped (confidence 15) [B403958A]
Track 4 accurately ripped (confidence 15) [6B37F047]
Track 5 accurately ripped (confidence 15) [B8F9AE43]
Track 6 accurately ripped (confidence 15) [AD7DD9E8]
Track 7 accurately ripped (confidence 15) [D3EC9C19]
Track 8 accurately ripped (confidence 15) [4221CD08]
Track 9 accurately ripped (confidence 15) [B13997C2]
Track 10 accurately ripped (confidence 15) [6CAEE46A]
Track 11 accurately ripped (confidence 15) [DBF61623]

All tracks accurately ripped

End of status report

REM ACCURATERIPID 000fae7f-0088c247-6c090d0b
REM GENRE Alt. Rock
REM DATE 2009
REM DISCID 6C090D0B
REM COMMENT “ExactAudioCopy v0.99pb5”
PERFORMER “Hoobastank”
TITLE “For(n)ever”
FILE “Hoobastank – For(n)ever.flac” WAVE
TRACK 01 AUDIO
TITLE “My Turn”
PERFORMER “Hoobastank”
INDEX 01 00:00:00
TRACK 02 AUDIO
TITLE “I Don’t Think I Love You”
PERFORMER “Hoobastank”
INDEX 01 03:09:08
TRACK 03 AUDIO
TITLE “So Close So Far”
PERFORMER “Hoobastank”
INDEX 01 06:48:53
TRACK 04 AUDIO
TITLE “All About You”
PERFORMER “Hoobastank”
INDEX 01 10:03:24
TRACK 05 AUDIO
TITLE “The Letter”
PERFORMER “Hoobastank”
INDEX 01 12:59:01
TRACK 06 AUDIO
TITLE “Tears of Yesterday”
PERFORMER “Hoobastank”
INDEX 01 16:53:65
TRACK 07 AUDIO
TITLE “Sick of Hanging On”
PERFORMER “Hoobastank”
INDEX 01 20:50:27
TRACK 08 AUDIO
TITLE “You’re the One”
PERFORMER “Hoobastank”
INDEX 01 24:03:26
TRACK 09 AUDIO
TITLE “Who the Hell Am I?”
PERFORMER “Hoobastank”
INDEX 01 27:58:68
TRACK 10 AUDIO
TITLE “You Need to Be Here”
PERFORMER “Hoobastank”
INDEX 01 31:58:57
TRACK 11 AUDIO
TITLE “Gone Gone Gone”
PERFORMER “Hoobastank”
INDEX 01 35:00:24


Leave a Reply

Your email address will not be published. Required fields are marked *

Enter the text from the image below
 

This site uses Akismet to reduce spam. Learn how your comment data is processed.