Hoobastank – Every Man For Himself




No Cover available

Artist: Hoobastank
Year: 2006
Genre: Rock
Notes: Discogs
Add. Notes:
Watch Songs on: YouTube
Cover incl.: Yes
Encoder: FLAC
Bitrate: ~1000 kBit/s (44.1 kHz/16 Bit/s)
Log & Cue incl.: Yes/Yes
Size: 376,7 MB
Password: “slam” (without ” “)


All Downloads/Hosters are compatible

Download 1
KatFile.com
Turbobit.net
Rapidgator.net
FileFactory.com
Download 2
KatFile.com
Turbobit.net
Rapidgator.net
FileFactory.com

Tracklist:

1 The Rules 0:52
2 Born To Lead 3:48
3 Moving Forward 4:27
4 Inside Of You 3:08
5 The First Of Me 5:24
6 Good Enough 3:21
7 If I Were You 4:18
8 Without A Fight 3:20
9 Don't Tell Me 4:12
10 Look Where We Are 3:28
11 Say The Same 4:01
12 If Only 3:28
13 More Than A Memory 7:13

EAC-Log, CUE-Sheed & NFO:

Click to open spoiler
Exact Audio Copy V0.99 prebeta 4 from 23. January 2008

EAC extraction logfile from 23. June 2008, 0:35

Hoobastank / Every Man For Himself

Used drive : Optiarc DVD RW AD-7203S Adapter: 5 ID: 0

Read mode : Secure
Utilize accurate stream : Yes
Defeat audio cache : Yes
Make use of C2 pointers : No

Read offset correction : 48
Overread into Lead-In and Lead-Out : No
Fill up missing offset samples with silence : Yes
Delete leading and trailing silent blocks : No
Null samples used in CRC calculations : No
Used interface : Native Win32 interface for Win NT & 2000

Used output format : Internal WAV Routines
Sample format : 44.100 Hz; 16 Bit; Stereo

TOC of the extracted CD

Track | Start | Length | Start sector | End sector
———————————————————
1 | 0:00.00 | 0:52.34 | 0 | 3933
2 | 0:52.34 | 3:48.66 | 3934 | 21099
3 | 4:41.25 | 4:27.55 | 21100 | 41179
4 | 9:09.05 | 3:08.60 | 41180 | 55339
5 | 12:17.65 | 5:24.15 | 55340 | 79654
6 | 17:42.05 | 3:20.72 | 79655 | 94726
7 | 21:03.02 | 4:18.20 | 94727 | 114096
8 | 25:21.22 | 3:20.59 | 114097 | 129155
9 | 28:42.06 | 4:12.52 | 129156 | 148107
10 | 32:54.58 | 3:28.38 | 148108 | 163745
11 | 36:23.21 | 4:01.32 | 163746 | 181852
12 | 40:24.53 | 3:28.43 | 181853 | 197495
13 | 43:53.21 | 7:13.59 | 197496 | 230029
14 | 53:39.05 | 25:56.74 | 241430 | 358203

Range status and errors

Selected range

Filename C:\Users\atag\Documents\Hoobastank – Every Man For Himself.wav

Peak level 100.0 %
Range quality 100.0 %
Test CRC FF75FA63
Copy CRC FF75FA63
Copy OK

No errors occurred

AccurateRip summary

Track 1 cannot be verified as accurate (confidence 9) [63A89468], AccurateRip returned [26E8BBFF]
Track 2 cannot be verified as accurate (confidence 9) [43F3176F], AccurateRip returned [1C143EF4]
Track 3 cannot be verified as accurate (confidence 9) [73519273], AccurateRip returned [EA7A3200]
Track 4 cannot be verified as accurate (confidence 10) [6FE2763C], AccurateRip returned [743DC334]
Track 5 cannot be verified as accurate (confidence 9) [EE6AF8E0], AccurateRip returned [D605E4C3]
Track 6 cannot be verified as accurate (confidence 9) [616669F3], AccurateRip returned [A61E221B]
Track 7 cannot be verified as accurate (confidence 9) [2F823BF4], AccurateRip returned [CD956B7A]
Track 8 cannot be verified as accurate (confidence 9) [2EF58A83], AccurateRip returned [5F4509AE]
Track 9 cannot be verified as accurate (confidence 9) [EDA814CA], AccurateRip returned [B8E5CBDC]
Track 10 cannot be verified as accurate (confidence 9) [7C22CB71], AccurateRip returned [A184F19A]
Track 11 cannot be verified as accurate (confidence 9) [4D92603B], AccurateRip returned [84AEBB1F]
Track 12 cannot be verified as accurate (confidence 9) [CBB59622], AccurateRip returned [5AC02F4C]
Track 13 cannot be verified as accurate (confidence 9) [DA7D8E3F], AccurateRip returned [B434074D]

No tracks could be verified as accurate
You may have a different pressing from the one(s) in the database

End of status report

REM GENRE Rock
REM DATE 2006
REM DISCID B512A80E
REM COMMENT “ExactAudioCopy v0.99pb4”
PERFORMER “Hoobastank”
TITLE “Every Man For Himself”
FILE “Hoobastank – Every Man For Himself.wav” WAVE
TRACK 01 AUDIO
TITLE “Hoobastank – The Rules”
PERFORMER “Hoobastank”
INDEX 01 00:00:00
TRACK 02 AUDIO
TITLE “Hoobastank – Born To Lead”
PERFORMER “Hoobastank”
INDEX 01 00:52:34
TRACK 03 AUDIO
TITLE “Hoobastank – Moving Forward”
PERFORMER “Hoobastank”
INDEX 01 04:41:25
TRACK 04 AUDIO
TITLE “Hoobastank – Inside Of You”
PERFORMER “Hoobastank”
INDEX 01 09:09:05
TRACK 05 AUDIO
TITLE “Hoobastank – The First Of Me”
PERFORMER “Hoobastank”
INDEX 01 12:17:65
TRACK 06 AUDIO
TITLE “Hoobastank – Good Enough”
PERFORMER “Hoobastank”
INDEX 01 17:42:05
TRACK 07 AUDIO
TITLE “Hoobastank – If I Were You”
PERFORMER “Hoobastank”
INDEX 01 21:03:02
TRACK 08 AUDIO
TITLE “Hoobastank – Without A Fight”
PERFORMER “Hoobastank”
INDEX 01 25:21:22
TRACK 09 AUDIO
TITLE “Hoobastank – Don’t Tell Me”
PERFORMER “Hoobastank”
INDEX 01 28:42:06
TRACK 10 AUDIO
TITLE “Hoobastank – Look Where We Are”
PERFORMER “Hoobastank”
INDEX 00 32:26:48
INDEX 01 32:54:58
TRACK 11 AUDIO
TITLE “Hoobastank – Say The Same”
PERFORMER “Hoobastank”
INDEX 01 36:23:21
TRACK 12 AUDIO
TITLE “Hoobastank – If Only”
PERFORMER “Hoobastank”
INDEX 01 40:24:53
TRACK 13 AUDIO
TITLE “Hoobastank – More Than A Memory”
PERFORMER “Hoobastank”
INDEX 01 43:53:21


Leave a Reply

Your email address will not be published. Required fields are marked *

Enter the text from the image below
 

This site uses Akismet to reduce spam. Learn how your comment data is processed.