Hollywood Undead – Swan Songs




No Cover available

Artist: Hollywood Undead
Year: 2008
Genre: Rock
Notes: Discogs
Add. Notes:
Watch Songs on: YouTube
Cover incl.: Yes
Encoder: FLAC
Bitrate: ~1000 kBit/s (44.1 kHz/16 Bit/s)
Log & Cue incl.: Yes/Yes
Size: 404,8 MB
Password: “slam” (without ” “)


All Downloads/Hosters are compatible

Download 1
KatFile.com
Turbobit.net
Rapidgator.net
DoUploads.net
Download 2
KatFile.com
Turbobit.net
Rapidgator.net
DoUploads.net

Tracklist:

1 Undead 4:25
2 Sell Your Soul 3:14
3 Everywhere I Go 3:30
4 No Other Place 3:17
5 No. 5 3:05
6 Young 3:16
7 Black Dahlia 3:46
8 This Love, This Hate 3:57
9 Bottle And A Gun 3:22
10 California 3:17
11 City 3:34
12 The Diary 4:35
13 Pimpin' 3:07
14 Paradise Lost 3:11

EAC-Log, CUE-Sheed & NFO:

Click to open spoiler
Exact Audio Copy V0.99 prebeta 5 from 4. May 2009

EAC extraction logfile from 17. February 2010, 15:31

Hollywood Undead / Swan Songs

Used drive : Optiarc DVD RW AD-7191A Adapter: 4 ID: 0

Read mode : Secure
Utilize accurate stream : Yes
Defeat audio cache : Yes
Make use of C2 pointers : No

Read offset correction : 6
Overread into Lead-In and Lead-Out : No
Fill up missing offset samples with silence : Yes
Delete leading and trailing silent blocks : No
Null samples used in CRC calculations : Yes
Used interface : Native Win32 interface for Win NT & 2000
Gap handling : Appended to previous track

Used output format : User Defined Encoder
Selected bitrate : 1024 kBit/s
Quality : High
Add ID3 tag : No
Command line compressor : C:\Program Files\Exact Audio Copy\Flac\flac.exe
Additional command line options : -8 -V -T “ARTIST=%a” -T “TITLE=%t” -T “ALBUM=%g” -T “DATE=%y” -T “TRACKNUMBER=%n” -T “GENRE=%m” -T “COMMENT=EAC FLAC ?8” %s

TOC of the extracted CD

Track | Start | Length | Start sector | End sector
———————————————————
1 | 0:00.00 | 4:25.04 | 0 | 19878
2 | 4:25.04 | 3:13.73 | 19879 | 34426
3 | 7:39.02 | 3:30.35 | 34427 | 50211
4 | 11:09.37 | 3:16.45 | 50212 | 64956
5 | 14:26.07 | 3:05.13 | 64957 | 78844
6 | 17:31.20 | 3:16.28 | 78845 | 93572
7 | 20:47.48 | 3:45.41 | 93573 | 110488
8 | 24:33.14 | 3:57.12 | 110489 | 128275
9 | 28:30.26 | 3:22.33 | 128276 | 143458
10 | 31:52.59 | 3:16.59 | 143459 | 158217
11 | 35:09.43 | 3:34.03 | 158218 | 174270
12 | 38:43.46 | 4:35.22 | 174271 | 194917
13 | 43:18.68 | 3:07.12 | 194918 | 208954
14 | 46:26.05 | 3:10.47 | 208955 | 223251

Track 1

Filename C:\Documents and Settings\LEXUS\My Documents\My Music\Hollywood Undead\01 – Undead.wav

Pre-gap length 0:00:02.00

Peak level 96.6 %
Track quality 100.0 %
Test CRC DE3B851C
Copy CRC DE3B851C
Cannot be verified as accurate (confidence 21) [E7506120], AccurateRip returned [68303FDF]
Copy OK

Track 2

Filename C:\Documents and Settings\LEXUS\My Documents\My Music\Hollywood Undead\02 – Sell Your Soul.wav

Peak level 96.6 %
Track quality 100.0 %
Test CRC 2E3608D0
Copy CRC 2E3608D0
Cannot be verified as accurate (confidence 21) [D88D19F0], AccurateRip returned [C6D7ACE0]
Copy OK

Track 3

Filename C:\Documents and Settings\LEXUS\My Documents\My Music\Hollywood Undead\03 – Everywhere I Go.wav

Peak level 90.1 %
Track quality 100.0 %
Test CRC 370E0C9A
Copy CRC 370E0C9A
Cannot be verified as accurate (confidence 21) [C6F0A8C5], AccurateRip returned [5C0F2574]
Copy OK

Track 4

Filename C:\Documents and Settings\LEXUS\My Documents\My Music\Hollywood Undead\04 – No Other Place.wav

Peak level 96.6 %
Track quality 100.0 %
Test CRC 4CA112A4
Copy CRC 4CA112A4
Cannot be verified as accurate (confidence 21) [61912D4E], AccurateRip returned [EE9E5078]
Copy OK

Track 5

Filename C:\Documents and Settings\LEXUS\My Documents\My Music\Hollywood Undead\05 – No.5.wav

Peak level 96.6 %
Track quality 100.0 %
Test CRC 6B1EB30C
Copy CRC 6B1EB30C
Cannot be verified as accurate (confidence 21) [2146C4B6], AccurateRip returned [A4CC0872]
Copy OK

Track 6

Filename C:\Documents and Settings\LEXUS\My Documents\My Music\Hollywood Undead\06 – Young.wav

Peak level 96.6 %
Track quality 100.0 %
Test CRC A360DFBD
Copy CRC A360DFBD
Cannot be verified as accurate (confidence 20) [D222305C], AccurateRip returned [714E4365]
Copy OK

Track 7

Filename C:\Documents and Settings\LEXUS\My Documents\My Music\Hollywood Undead\07 – Black Dahlia.wav

Peak level 96.6 %
Track quality 100.0 %
Test CRC E6956613
Copy CRC E6956613
Cannot be verified as accurate (confidence 21) [7AD89E1B], AccurateRip returned [1A94764C]
Copy OK

Track 8

Filename C:\Documents and Settings\LEXUS\My Documents\My Music\Hollywood Undead\08 – This Love, This Hate.wav

Peak level 91.2 %
Track quality 100.0 %
Test CRC 6FCED33F
Copy CRC 6FCED33F
Cannot be verified as accurate (confidence 21) [7D013CC2], AccurateRip returned [EB285000]
Copy OK

Track 9

Filename C:\Documents and Settings\LEXUS\My Documents\My Music\Hollywood Undead\09 – Bottle And A Gun.wav

Peak level 96.6 %
Track quality 100.0 %
Test CRC 8A3F38DE
Copy CRC 8A3F38DE
Cannot be verified as accurate (confidence 21) [BF659D74], AccurateRip returned [279A2B1B]
Copy OK

Track 10

Filename C:\Documents and Settings\LEXUS\My Documents\My Music\Hollywood Undead\10 – California.wav

Peak level 96.6 %
Track quality 100.0 %
Test CRC B720DB5C
Copy CRC B720DB5C
Cannot be verified as accurate (confidence 21) [DBA768D4], AccurateRip returned [E79B17BF]
Copy OK

Track 11

Filename C:\Documents and Settings\LEXUS\My Documents\My Music\Hollywood Undead\11 – City.wav

Peak level 96.6 %
Track quality 100.0 %
Test CRC 42F2FAA2
Copy CRC 42F2FAA2
Cannot be verified as accurate (confidence 21) [B92CD056], AccurateRip returned [F575FF3A]
Copy OK

Track 12

Filename C:\Documents and Settings\LEXUS\My Documents\My Music\Hollywood Undead\12 – The Diary.wav

Peak level 96.6 %
Track quality 99.9 %
Test CRC D3A00469
Copy CRC D3A00469
Cannot be verified as accurate (confidence 21) [B9AF4CCC], AccurateRip returned [68E35DB7]
Copy OK

Track 13

Filename C:\Documents and Settings\LEXUS\My Documents\My Music\Hollywood Undead\13 – Pimpin’.wav

Peak level 96.6 %
Track quality 100.0 %
Test CRC B3303B2C
Copy CRC B3303B2C
Cannot be verified as accurate (confidence 21) [99978593], AccurateRip returned [C52BC001]
Copy OK

Track 14

Filename C:\Documents and Settings\LEXUS\My Documents\My Music\Hollywood Undead\14 – Paradise Lost.wav

Peak level 96.6 %
Track quality 99.9 %
Test CRC A08ACE4D
Copy CRC A08ACE4D
Cannot be verified as accurate (confidence 20) [DC8181C4], AccurateRip returned [9B971FE7]
Copy OK

No tracks could be verified as accurate
You may have a different pressing from the one(s) in the database

No errors occurred

End of status report

REM GENRE Rap
REM DATE 2008
REM DISCID B60BA00E
REM COMMENT “ExactAudioCopy v0.99pb5”
PERFORMER “Hollywood Undead”
TITLE “Swan Songs”
FILE “01 – Undead.wav” WAVE
TRACK 01 AUDIO
TITLE “Undead”
PERFORMER “Hollywood Undead”
INDEX 01 00:00:00
FILE “02 – Sell Your Soul.wav” WAVE
TRACK 02 AUDIO
TITLE “Sell Your Soul”
PERFORMER “Hollywood Undead”
INDEX 01 00:00:00
FILE “03 – Everywhere I Go.wav” WAVE
TRACK 03 AUDIO
TITLE “Everywhere I Go”
PERFORMER “Hollywood Undead”
INDEX 01 00:00:00
FILE “04 – No Other Place.wav” WAVE
TRACK 04 AUDIO
TITLE “No Other Place”
PERFORMER “Hollywood Undead”
INDEX 01 00:00:00
FILE “05 – No.5.wav” WAVE
TRACK 05 AUDIO
TITLE “No.5”
PERFORMER “Hollywood Undead”
INDEX 01 00:00:00
FILE “06 – Young.wav” WAVE
TRACK 06 AUDIO
TITLE “Young”
PERFORMER “Hollywood Undead”
INDEX 01 00:00:00
FILE “07 – Black Dahlia.wav” WAVE
TRACK 07 AUDIO
TITLE “Black Dahlia”
PERFORMER “Hollywood Undead”
INDEX 01 00:00:00
FILE “08 – This Love, This Hate.wav” WAVE
TRACK 08 AUDIO
TITLE “This Love, This Hate”
PERFORMER “Hollywood Undead”
INDEX 01 00:00:00
FILE “09 – Bottle And A Gun.wav” WAVE
TRACK 09 AUDIO
TITLE “Bottle And A Gun”
PERFORMER “Hollywood Undead”
INDEX 01 00:00:00
FILE “10 – California.wav” WAVE
TRACK 10 AUDIO
TITLE “California”
PERFORMER “Hollywood Undead”
INDEX 01 00:00:00
FILE “11 – City.wav” WAVE
TRACK 11 AUDIO
TITLE “City”
PERFORMER “Hollywood Undead”
INDEX 01 00:00:00
FILE “12 – The Diary.wav” WAVE
TRACK 12 AUDIO
TITLE “The Diary”
PERFORMER “Hollywood Undead”
INDEX 01 00:00:00
FILE “13 – Pimpin’.wav” WAVE
TRACK 13 AUDIO
TITLE “Pimpin'”
PERFORMER “Hollywood Undead”
INDEX 01 00:00:00
FILE “14 – Paradise Lost.wav” WAVE
TRACK 14 AUDIO
TITLE “Paradise Lost”
PERFORMER “Hollywood Undead”
INDEX 01 00:00:00


Leave a Reply

Your email address will not be published. Required fields are marked *

Enter the text from the image below
 

This site uses Akismet to reduce spam. Learn how your comment data is processed.