Hollywood Undead – Notes From The Underground




No Cover available

Artist: Hollywood Undead
Year: 2013
Genre: Rock
Notes: Discogs
Add. Notes:
Watch Songs on: YouTube
Cover incl.: Yes
Encoder: FLAC
Bitrate: ~1000 kBit/s (44.1 kHz/16 Bit/s)
Log & Cue incl.: Yes/Yes
Size: 297,1 MB
Password: “slam” (without ” “)


All Downloads/Hosters are compatible

Download 1
KatFile.com
Turbobit.net
Rapidgator.net
FileFactory.com
Download 2
KatFile.com
Turbobit.net
Rapidgator.net
FileFactory.com

Tracklist:

1 Dead Bite 3:38
2 From The Ground 3:45
3 Another Way Out 2:48
4 Lion 3:55
5 We Are 4:34
6 Pigskin 2:41
7 Rain 3:41
8 Kill Everyone 2:53
9 Believe 4:14
10 Up In Smoke 3:39
11 Outside 4:43

EAC-Log, CUE-Sheed & NFO:

Click to open spoiler
Exact Audio Copy V1.0 beta 3 from 29. August 2011

EAC extraction logfile from 17. November 2013, 0:13

Hollywood Undead / Notes From The Underground

Used drive : ATAPI iHAS120 6 Adapter: 0 ID: 0

Read mode : Secure
Utilize accurate stream : Yes
Defeat audio cache : Yes
Make use of C2 pointers : No

Read offset correction : 6
Overread into Lead-In and Lead-Out : No
Fill up missing offset samples with silence : Yes
Delete leading and trailing silent blocks : No
Null samples used in CRC calculations : Yes
Used interface : Native Win32 interface for Win NT & 2000
Gap handling : Appended to previous track

Used output format : User Defined Encoder
Selected bitrate : 1024 kBit/s
Quality : High
Add ID3 tag : No
Command line compressor : C:\Program Files (x86)\Exact Audio Copy\Flac\flac.exe
Additional command line options : -8 -V -T “ARTIST=%artist%” -T “TITLE=%title%” -T “ALBUM=%albumtitle%” -T “DATE=%year%” -T “TRACKNUMBER=%tracknr%” -T “GENRE=%genre%” -T “PERFORMER=%albuminterpret%” -T “COMPOSER=%composer%” %haslyrics%–tag-from-file=LYRICS=”%lyricsfile%”%haslyrics% -T “ALBUMARTIST=%albumartist%” -T “DISCNUMBER=%cdnumber%” -T “TOTALDISCS=%totalcds%” -T “TOTALTRACKS=%numtracks%” -T “COMMENT=%comment%” %source% -o %dest%

TOC of the extracted CD

Track | Start | Length | Start sector | End sector
———————————————————
1 | 0:00.00 | 3:38.20 | 0 | 16369
2 | 3:38.20 | 3:45.15 | 16370 | 33259
3 | 7:23.35 | 2:47.50 | 33260 | 45834
4 | 10:11.10 | 3:54.70 | 45835 | 63454
5 | 14:06.05 | 4:34.29 | 63455 | 84033
6 | 18:40.34 | 2:41.20 | 84034 | 96128
7 | 21:21.54 | 3:41.37 | 96129 | 112740
8 | 25:03.16 | 2:52.43 | 112741 | 125683
9 | 27:55.59 | 4:14.27 | 125684 | 144760
10 | 32:10.11 | 3:38.73 | 144761 | 161183
11 | 35:49.09 | 4:43.23 | 161184 | 182431

Track 1

Filename C:\Users\justsaymint\Desktop\Hollywood Undead – Notes From The Underground (2013) [FLAC]\01 Dead Bite.wav

Pre-gap length 0:00:02.00

Peak level 98.8 %
Extraction speed 5.5 X
Track quality 100.0 %
Test CRC ADA8781C
Copy CRC ADA8781C
Accurately ripped (confidence 3) [A193D720] (AR v2)
Copy OK

Track 2

Filename C:\Users\justsaymint\Desktop\Hollywood Undead – Notes From The Underground (2013) [FLAC]\02 From The Ground.wav

Pre-gap length 2:04:37.85

Peak level 100.0 %
Extraction speed 6.0 X
Track quality 100.0 %
Test CRC 3F91849A
Copy CRC 3F91849A
Accurately ripped (confidence 3) [DC0715BE] (AR v2)
Copy OK

Track 3

Filename C:\Users\justsaymint\Desktop\Hollywood Undead – Notes From The Underground (2013) [FLAC]\03 Another Way Out.wav

Pre-gap length 2:04:37.85

Peak level 98.8 %
Extraction speed 5.2 X
Track quality 99.9 %
Test CRC DCD6DC01
Copy CRC DCD6DC01
Accurately ripped (confidence 3) [B3CA1D2D] (AR v2)
Copy OK

Track 4

Filename C:\Users\justsaymint\Desktop\Hollywood Undead – Notes From The Underground (2013) [FLAC]\04 Lion.wav

Pre-gap length 2:04:37.85

Peak level 100.0 %
Extraction speed 6.8 X
Track quality 100.0 %
Test CRC 0C3A1A07
Copy CRC 0C3A1A07
Accurately ripped (confidence 3) [F5917714] (AR v2)
Copy OK

Track 5

Filename C:\Users\justsaymint\Desktop\Hollywood Undead – Notes From The Underground (2013) [FLAC]\05 We Are.wav

Pre-gap length 2:04:37.85

Peak level 98.8 %
Extraction speed 7.3 X
Track quality 100.0 %
Test CRC F0FB6C5F
Copy CRC F0FB6C5F
Accurately ripped (confidence 3) [7C2C0A3F] (AR v2)
Copy OK

Track 6

Filename C:\Users\justsaymint\Desktop\Hollywood Undead – Notes From The Underground (2013) [FLAC]\06 Pigskin.wav

Pre-gap length 2:04:37.85

Peak level 100.0 %
Extraction speed 7.1 X
Track quality 100.0 %
Test CRC AE57D2FE
Copy CRC AE57D2FE
Accurately ripped (confidence 4) [6BA37FFB] (AR v2)
Copy OK

Track 7

Filename C:\Users\justsaymint\Desktop\Hollywood Undead – Notes From The Underground (2013) [FLAC]\07 Rain.wav

Pre-gap length 2:04:37.85

Peak level 98.8 %
Extraction speed 7.8 X
Track quality 100.0 %
Test CRC 6CBC771B
Copy CRC 6CBC771B
Accurately ripped (confidence 3) [9B805FF0] (AR v2)
Copy OK

Track 8

Filename C:\Users\justsaymint\Desktop\Hollywood Undead – Notes From The Underground (2013) [FLAC]\08 Kill Everyone.wav

Pre-gap length 2:04:38.12

Peak level 98.8 %
Extraction speed 7.7 X
Track quality 100.0 %
Test CRC 4362AB92
Copy CRC 4362AB92
Accurately ripped (confidence 3) [F4E62E07] (AR v2)
Copy OK

Track 9

Filename C:\Users\justsaymint\Desktop\Hollywood Undead – Notes From The Underground (2013) [FLAC]\09 Believe.wav

Pre-gap length 2:04:37.85

Peak level 98.8 %
Extraction speed 8.4 X
Track quality 100.0 %
Test CRC 90271473
Copy CRC 90271473
Accurately ripped (confidence 3) [39A3792C] (AR v2)
Copy OK

Track 10

Filename C:\Users\justsaymint\Desktop\Hollywood Undead – Notes From The Underground (2013) [FLAC]\10 Up In Smoke.wav

Pre-gap length 2:04:37.85

Peak level 98.8 %
Extraction speed 8.5 X
Track quality 100.0 %
Test CRC 6EFEAC3C
Copy CRC 6EFEAC3C
Accurately ripped (confidence 3) [0836D57A] (AR v2)
Copy OK

Track 11

Filename C:\Users\justsaymint\Desktop\Hollywood Undead – Notes From The Underground (2013) [FLAC]\11 Outside.wav

Pre-gap length 2:04:38.26

Peak level 98.8 %
Extraction speed 9.2 X
Track quality 100.0 %
Test CRC BC025FBD
Copy CRC BC025FBD
Accurately ripped (confidence 3) [5614744B] (AR v2)
Copy OK

All tracks accurately ripped

No errors occurred

End of status report

—- CUETools DB Plugin V2.1.3

[CTDB TOCID: 04HwuWeyOcT0LZ_nthOXbrbkQ7k-] found, Submit result: 04HwuWeyOcT0LZ_nthOXbrbkQ7k- has been confirmed
[3824467b] (1/1) Accurately ripped

==== Log checksum 2C14AEF7B06B3C14E076343D962C4FF6E9FFA842231FD2B9B08B9EF1D52651AF ====

REM DATE 2013
REM DISCID 7D09800B
REM COMMENT “ExactAudioCopy v1.0b3”
CATALOG 0602537260065
PERFORMER “Hollywood Undead”
TITLE “Notes From The Underground”
FILE “01 Dead Bite.wav” WAVE
TRACK 01 AUDIO
TITLE “Dead Bite”
PERFORMER “Hollywood Undead”
ISRC H2MM71215633
INDEX 01 00:00:00
TRACK 02 AUDIO
TITLE “From The Ground”
PERFORMER “Hollywood Undead”
ISRC H2MM71215655
INDEX 00 80:01:31
FILE “02 From The Ground.wav” WAVE
INDEX 01 00:00:00
TRACK 03 AUDIO
TITLE “Another Way Out”
PERFORMER “Hollywood Undead”
ISRC H2MM71215656
INDEX 00 80:08:26
FILE “03 Another Way Out.wav” WAVE
INDEX 01 00:00:00
TRACK 04 AUDIO
TITLE “Lion”
PERFORMER “Hollywood Undead”
ISRC H2MM71215657
INDEX 00 89:10:61
FILE “04 Lion.wav” WAVE
INDEX 01 00:00:00
TRACK 05 AUDIO
TITLE “We Are”
PERFORMER “Hollywood Undead”
ISRC H2MM71213136
INDEX 00 80:18:06
FILE “05 We Are.wav” WAVE
INDEX 01 00:00:00
TRACK 06 AUDIO
TITLE “Pigskin”
PERFORMER “Hollywood Undead”
ISRC H2MM71215659
INDEX 00 80:57:40
FILE “06 Pigskin.wav” WAVE
INDEX 01 00:00:00
TRACK 07 AUDIO
TITLE “Rain”
PERFORMER “Hollywood Undead”
ISRC H2MM71215660
INDEX 00 89:04:31
FILE “07 Rain.wav” WAVE
INDEX 01 00:00:00
TRACK 08 AUDIO
TITLE “Kill Everyone”
PERFORMER “Hollywood Undead”
ISRC H2MM71215661
INDEX 00 80:04:28
FILE “08 Kill Everyone.wav” WAVE
INDEX 01 00:00:00
TRACK 09 AUDIO
TITLE “Believe”
PERFORMER “Hollywood Undead”
ISRC H2MM71215661
INDEX 00 89:15:54
FILE “09 Believe.wav” WAVE
INDEX 01 00:00:00
TRACK 10 AUDIO
TITLE “Up In Smoke”
PERFORMER “Hollywood Undead”
ISRC H2MM71215666
INDEX 00 80:37:38
FILE “10 Up In Smoke.wav” WAVE
INDEX 01 00:00:00
TRACK 11 AUDIO
TITLE “Outside”
PERFORMER “Hollywood Undead”
ISRC H2MM71215667
INDEX 00 80:01:53
FILE “11 Outside.wav” WAVE
INDEX 01 00:00:00


Leave a Reply

Your email address will not be published. Required fields are marked *

Enter the text from the image below
 

This site uses Akismet to reduce spam. Learn how your comment data is processed.