Hollywood Undead – Desperate Measures




No Cover available

Artist: Hollywood Undead
Year: 2009
Genre: Metal
Notes: Discogs
Add. Notes:
Watch Songs on: YouTube
Cover incl.: Yes
Encoder: FLAC
Bitrate: ~1000 kBit/s (44.1 kHz/16 Bit/s)
Log & Cue incl.: Yes/Yes
Size: 329,6 MB
Password: “slam” (without ” “)


All Downloads/Hosters are compatible

Download 1
KatFile.com
Turbobit.net
FileFactory.com
Rapidgator.net
Download 2
KatFile.com
Turbobit.net
FileFactory.com
Rapidgator.net

Tracklist:

1 Dove And Grenade 2:54
2 Tear It Up 3:15
3 Shout At The Devil 3:21
4 Immigrant Song 2:40
5 Bad Town 2:45
6 El Urgencia 3:44
7 Everywhere I Go (Castle Renholder Mix) 3:31
8 Undead (Live) 4:48
9 Sell Your Soul (Live) 3:24
10 California (Live) 3:20
11 Black Dahlia (Live) 3:55
12 Everywhere I Go (Live) 3:45
13 No. 5 (Live) 3:30

EAC-Log, CUE-Sheed & NFO:

Click to open spoiler
Exact Audio Copy V0.99 prebeta 5 from 4. May 2009

EAC extraction logfile from 10. November 2009, 23:03

Hollywood Undead / Desperate Measures

Used drive : TSSTcorpCDDVDW SH-S203N Adapter: 0 ID: 1

Read mode : Secure
Utilize accurate stream : Yes
Defeat audio cache : Yes
Make use of C2 pointers : No

Read offset correction : 6
Overread into Lead-In and Lead-Out : No
Fill up missing offset samples with silence : Yes
Delete leading and trailing silent blocks : No
Null samples used in CRC calculations : Yes
Used interface : Native Win32 interface for Win NT & 2000
Gap handling : Appended to previous track

Used output format : User Defined Encoder
Selected bitrate : 768 kBit/s
Quality : High
Add ID3 tag : No
Command line compressor : C:\Program Files (x86)\Exact Audio Copy\FLAC\FLAC.EXE
Additional command line options : -V -8 -T “artist=%a” -T “title=%t” -T “album=%g” -T “date=%y” -T “tracknumber=%n” -T “genre=%m” %s

TOC of the extracted CD

Track | Start | Length | Start sector | End sector
———————————————————
1 | 0:00.00 | 2:54.23 | 0 | 13072
2 | 2:54.23 | 3:14.54 | 13073 | 27676
3 | 6:09.02 | 3:20.73 | 27677 | 42749
4 | 9:30.00 | 2:40.11 | 42750 | 54760
5 | 12:10.11 | 2:44.53 | 54761 | 67113
6 | 14:54.64 | 3:44.19 | 67114 | 83932
7 | 18:39.08 | 3:30.67 | 83933 | 99749
8 | 22:10.00 | 4:48.09 | 99750 | 121358
9 | 26:58.09 | 3:23.49 | 121359 | 136632
10 | 30:21.58 | 3:20.26 | 136633 | 151658
11 | 33:42.09 | 3:55.11 | 151659 | 169294
12 | 37:37.20 | 3:44.56 | 169295 | 186150
13 | 41:22.01 | 3:29.69 | 186151 | 201894

Track 1

Filename C:\Users\wingrunr21\Desktop\EAC Output\01 – Dove and Grenade.wav

Pre-gap length 0:00:02.00

Peak level 98.8 %
Track quality 100.0 %
Test CRC 7D26941C
Copy CRC 7D26941C
Track not present in AccurateRip database
Copy OK

Track 2

Filename C:\Users\wingrunr21\Desktop\EAC Output\02 – Tear It Up.wav

Peak level 98.8 %
Track quality 100.0 %
Test CRC 76D10E7C
Copy CRC 76D10E7C
Track not present in AccurateRip database
Copy OK

Track 3

Filename C:\Users\wingrunr21\Desktop\EAC Output\03 – Shout at the Devil (Mötley Crüe cover).wav

Peak level 98.8 %
Track quality 100.0 %
Test CRC 93660CE4
Copy CRC 93660CE4
Track not present in AccurateRip database
Copy OK

Track 4

Filename C:\Users\wingrunr21\Desktop\EAC Output\04 – Immigrant Song (Led Zepplin cover).wav

Peak level 98.8 %
Track quality 100.0 %
Test CRC E0579A0E
Copy CRC E0579A0E
Track not present in AccurateRip database
Copy OK

Track 5

Filename C:\Users\wingrunr21\Desktop\EAC Output\05 – Bad Town (Operation Ivy cover).wav

Peak level 98.8 %
Track quality 99.9 %
Test CRC 71ACAE0E
Copy CRC 71ACAE0E
Track not present in AccurateRip database
Copy OK

Track 6

Filename C:\Users\wingrunr21\Desktop\EAC Output\06 – El Urgencia.wav

Peak level 98.8 %
Track quality 100.0 %
Test CRC F446A612
Copy CRC F446A612
Track not present in AccurateRip database
Copy OK

Track 7

Filename C:\Users\wingrunr21\Desktop\EAC Output\07 – Everywhere I Go (Castle Renholdër remix).wav

Peak level 98.8 %
Track quality 100.0 %
Test CRC 9B3E6EA6
Copy CRC 9B3E6EA6
Track not present in AccurateRip database
Copy OK

Track 8

Filename C:\Users\wingrunr21\Desktop\EAC Output\08 – Undead (Live).wav

Peak level 98.8 %
Track quality 100.0 %
Test CRC 88F75C3F
Copy CRC 88F75C3F
Track not present in AccurateRip database
Copy OK

Track 9

Filename C:\Users\wingrunr21\Desktop\EAC Output\09 – Sell Your Soul (Live).wav

Peak level 98.8 %
Track quality 100.0 %
Test CRC 6E64B6FD
Copy CRC 6E64B6FD
Track not present in AccurateRip database
Copy OK

Track 10

Filename C:\Users\wingrunr21\Desktop\EAC Output\10 – California (Live).wav

Peak level 98.8 %
Track quality 100.0 %
Test CRC DF06F6E3
Copy CRC DF06F6E3
Track not present in AccurateRip database
Copy OK

Track 11

Filename C:\Users\wingrunr21\Desktop\EAC Output\11 – Black Dahlia (Live).wav

Peak level 98.8 %
Track quality 100.0 %
Test CRC 57C4BBAE
Copy CRC 57C4BBAE
Track not present in AccurateRip database
Copy OK

Track 12

Filename C:\Users\wingrunr21\Desktop\EAC Output\12 – Everywhere I Go (Live).wav

Peak level 98.8 %
Track quality 100.0 %
Test CRC BEA8D30D
Copy CRC BEA8D30D
Track not present in AccurateRip database
Copy OK

Track 13

Filename C:\Users\wingrunr21\Desktop\EAC Output\13 – No. 5 (Live).wav

Peak level 98.8 %
Track quality 100.0 %
Test CRC 69F7B50D
Copy CRC 69F7B50D
Track not present in AccurateRip database
Copy OK

None of the tracks are present in the AccurateRip database

No errors occurred

End of status report

REM GENRE “Rap Rock”
REM DATE 2009
REM DISCID 9D0A830D
REM COMMENT “ExactAudioCopy v0.99pb5”
PERFORMER “Hollywood Undead”
TITLE “Desperate Measures”
FILE “01 – Dove and Grenade.wav” WAVE
TRACK 01 AUDIO
TITLE “Dove and Grenade”
PERFORMER “Hollywood Undead”
FLAGS DCP
INDEX 01 00:00:00
FILE “02 – Tear It Up.wav” WAVE
TRACK 02 AUDIO
TITLE “Tear It Up”
PERFORMER “Hollywood Undead”
FLAGS DCP
INDEX 01 00:00:00
FILE “03 – Shout at the Devil (Mötley Crüe cover).wav” WAVE
TRACK 03 AUDIO
TITLE “Shout at the Devil (Mötley Crüe cover) ”
PERFORMER “Hollywood Undead”
FLAGS DCP
INDEX 01 00:00:00
FILE “04 – Immigrant Song (Led Zepplin cover).wav” WAVE
TRACK 04 AUDIO
TITLE “Immigrant Song (Led Zepplin cover)”
PERFORMER “Hollywood Undead”
FLAGS DCP
INDEX 01 00:00:00
FILE “05 – Bad Town (Operation Ivy cover).wav” WAVE
TRACK 05 AUDIO
TITLE “Bad Town (Operation Ivy cover)”
PERFORMER “Hollywood Undead”
FLAGS DCP
INDEX 01 00:00:00
FILE “06 – El Urgencia.wav” WAVE
TRACK 06 AUDIO
TITLE “El Urgencia”
PERFORMER “Hollywood Undead”
FLAGS DCP
INDEX 01 00:00:00
FILE “07 – Everywhere I Go (Castle Renholdër remix).wav” WAVE
TRACK 07 AUDIO
TITLE “Everywhere I Go (Castle Renholdër remix)”
PERFORMER “Hollywood Undead”
FLAGS DCP
INDEX 01 00:00:00
FILE “08 – Undead (Live).wav” WAVE
TRACK 08 AUDIO
TITLE “Undead (Live) ”
PERFORMER “Hollywood Undead”
FLAGS DCP
INDEX 01 00:00:00
FILE “09 – Sell Your Soul (Live).wav” WAVE
TRACK 09 AUDIO
TITLE “Sell Your Soul (Live)”
PERFORMER “Hollywood Undead”
FLAGS DCP
INDEX 01 00:00:00
FILE “10 – California (Live).wav” WAVE
TRACK 10 AUDIO
TITLE “California (Live)”
PERFORMER “Hollywood Undead”
FLAGS DCP
INDEX 01 00:00:00
FILE “11 – Black Dahlia (Live).wav” WAVE
TRACK 11 AUDIO
TITLE “Black Dahlia (Live) ”
PERFORMER “Hollywood Undead”
FLAGS DCP
INDEX 01 00:00:00
FILE “12 – Everywhere I Go (Live).wav” WAVE
TRACK 12 AUDIO
TITLE “Everywhere I Go (Live) ”
PERFORMER “Hollywood Undead”
FLAGS DCP
INDEX 01 00:00:00
FILE “13 – No. 5 (Live).wav” WAVE
TRACK 13 AUDIO
TITLE “No. 5 (Live) ”
PERFORMER “Hollywood Undead”
FLAGS DCP
INDEX 01 00:00:00


0

Publication author

offline 8 hours

Chaos

3
Comments: 4Publics: 3360Registration: 02-02-2019
Spread the Download

Leave a Reply

Your email address will not be published. Required fields are marked *

Enter the text from the image below
 

This site uses Akismet to reduce spam. Learn how your comment data is processed.