Herzlos – Zweifler & Gewinner




Artist: Herzlos
Year: 2016
Genre: Punk
Notes: Discogs
Add. Notes:
Cover incl.: Yes
Encoder: FLAC
Bitrate: ~1000 kBit/s (44.1 kHz/16 Bit/s)
Log & Cue incl.: Yes
Size: 367,46 MB
Password: “slam” (without ” “)


All Downloads/Hosters are compatible

Download 1
Turbobit.net
Rapidgator.net
KatFile.com
UploadRar.com
Download 2
Turbobit.net
Rapidgator.net
KatFile.com
UploadRar.com
Download 3
Turbobit.net
Rapidgator.net
KatFile.com
UploadRar.com

Tracklist:

1. Unter Strom. 
2. Zweifler & Gewinner. 
3. Strassenköter. 
4. Der Stärkste (Am Tresen). 
5. Atme Den Wahnsinn Ein. 
6. Mittelpunkt. 
7. Unser Testament. 
8. Grau. 
9. Falsche Pfade. 
10. Woran Haltet Ihr Euch Fest. 
11. Imperfekt. 
12. Es Wird Schon Wieder Hell. 
13. Wir Ziehen Weiter

EAC-Log, CUE-Sheed & NFO:

Click to open spoiler
Exact Audio Copy V1.3 from 2. September 2016

EAC extraction logfile from 31. October 2018, 20:45

Herzlos / Zweifler & Gewinner

Used drive : PIONEER DVD-RW DVR-221L Adapter: 1 ID: 1

Read mode : Secure
Utilize accurate stream : Yes
Defeat audio cache : Yes
Make use of C2 pointers : No

Read offset correction : 6
Overread into Lead-In and Lead-Out : No
Fill up missing offset samples with silence : Yes
Delete leading and trailing silent blocks : No
Null samples used in CRC calculations : Yes
Used interface : Native Win32 interface for Win NT & 2000

Used output format : User Defined Encoder
Selected bitrate : 1024 kBit/s
Quality : High
Add ID3 tag : No
Command line compressor : C:\Program Files (x86)\Exact Audio Copy\Flac\flac.exe
Additional command line options : -V -8 -T “Date=%year%” -T “Genre=%genre%” %source%

TOC of the extracted CD

Track | Start | Length | Start sector | End sector
———————————————————
1 | 0:00.00 | 3:26.66 | 0 | 15515
2 | 3:26.66 | 2:57.14 | 15516 | 28804
3 | 6:24.05 | 3:08.71 | 28805 | 42975
4 | 9:33.01 | 3:29.35 | 42976 | 58685
5 | 13:02.36 | 3:37.13 | 58686 | 74973
6 | 16:39.49 | 3:31.15 | 74974 | 90813
7 | 20:10.64 | 3:37.13 | 90814 | 107101
8 | 23:48.02 | 3:55.59 | 107102 | 124785
9 | 27:43.61 | 2:42.40 | 124786 | 136975
10 | 30:26.26 | 4:04.16 | 136976 | 155291
11 | 34:30.42 | 4:28.72 | 155292 | 175463
12 | 38:59.39 | 3:46.63 | 175464 | 192476
13 | 42:46.27 | 3:58.63 | 192477 | 210389

Range status and errors

Selected range

Filename D:\Mutineer\Herzlos – Zweifler & Gewinner\Herzlos – Zweifler & Gewinner.wav

Peak level 100.0 %
Extraction speed 4.4 X
Range quality 100.0 %
Test CRC C05A300C
Copy CRC C05A300C
Copy OK

No errors occurred

AccurateRip summary

Track 1 accurately ripped (confidence 1) [C1C2A523] (AR v1)
Track 2 accurately ripped (confidence 1) [50E942AB] (AR v1)
Track 3 accurately ripped (confidence 1) [1E72C9B9] (AR v1)
Track 4 accurately ripped (confidence 1) [D42C2927] (AR v1)
Track 5 accurately ripped (confidence 1) [5E94DA95] (AR v1)
Track 6 accurately ripped (confidence 1) [45CF6038] (AR v1)
Track 7 accurately ripped (confidence 1) [18106849] (AR v1)
Track 8 accurately ripped (confidence 1) [15015292] (AR v1)
Track 9 accurately ripped (confidence 1) [7B341227] (AR v1)
Track 10 accurately ripped (confidence 1) [D64D8B01] (AR v1)
Track 11 accurately ripped (confidence 1) [60C4B46F] (AR v1)
Track 12 accurately ripped (confidence 1) [8850529A] (AR v1)
Track 13 accurately ripped (confidence 1) [C8B4BA96] (AR v1)

All tracks accurately ripped

End of status report

==== Log checksum AFF8C4CDACBB4F6CAC61B9BDA80CC6B296DEA357E5B857C016933EF1799C07E2 ====

REM GENRE Punk
REM DATE 2016
REM DISCID A00AF50D
REM COMMENT “ExactAudioCopy v1.3”
PERFORMER “Herzlos”
TITLE “Zweifler & Gewinner”
REM COMPOSER “”
FILE “Herzlos – Zweifler & Gewinner.flac” WAVE
TRACK 01 AUDIO
TITLE “Unter Strom”
PERFORMER “Herzlos”
REM COMPOSER “”
FLAGS DCP
INDEX 01 00:00:00
TRACK 02 AUDIO
TITLE “Zweifler & Gewinner”
PERFORMER “Herzlos”
REM COMPOSER “”
FLAGS DCP
INDEX 01 03:26:66
TRACK 03 AUDIO
TITLE “Strassenkoter”
PERFORMER “Herzlos”
REM COMPOSER “”
FLAGS DCP
INDEX 01 06:24:05
TRACK 04 AUDIO
TITLE “Der Starkste (Am Tresen)”
PERFORMER “Herzlos”
REM COMPOSER “”
FLAGS DCP
INDEX 01 09:33:01
TRACK 05 AUDIO
TITLE “Atme Den Wahnsinn Ein”
PERFORMER “Herzlos”
REM COMPOSER “”
FLAGS DCP
INDEX 01 13:02:36
TRACK 06 AUDIO
TITLE “Mittelpunkt”
PERFORMER “Herzlos”
REM COMPOSER “”
FLAGS DCP
INDEX 01 16:39:49
TRACK 07 AUDIO
TITLE “Unser Testament”
PERFORMER “Herzlos”
REM COMPOSER “”
FLAGS DCP
INDEX 01 20:10:64
TRACK 08 AUDIO
TITLE “Grau”
PERFORMER “Herzlos”
REM COMPOSER “”
FLAGS DCP
INDEX 01 23:48:02
TRACK 09 AUDIO
TITLE “Falsche Pfade”
PERFORMER “Herzlos”
REM COMPOSER “”
FLAGS DCP
INDEX 01 27:43:61
TRACK 10 AUDIO
TITLE “Woran Haltet Ihr Euch Fest”
PERFORMER “Herzlos”
REM COMPOSER “”
FLAGS DCP
INDEX 01 30:26:26
TRACK 11 AUDIO
TITLE “Imperfekt”
PERFORMER “Herzlos”
REM COMPOSER “”
FLAGS DCP
INDEX 01 34:30:42
TRACK 12 AUDIO
TITLE “Es Wird Schon Wieder Hell”
PERFORMER “Herzlos”
REM COMPOSER “”
FLAGS DCP
INDEX 01 38:59:39
TRACK 13 AUDIO
TITLE “Wir Ziehen Weiter”
PERFORMER “Herzlos”
REM COMPOSER “”
FLAGS DCP
INDEX 01 42:46:27


Leave a Reply

Your email address will not be published. Required fields are marked *

Enter the text from the image below
 

This site uses Akismet to reduce spam. Learn how your comment data is processed.