Hermética – Hermética




[Total: 0    Average: 0/5]

Artist: Hermética
Year: 1991
Genre: Metal
Notes: Discogs
Add. Notes:
Cover incl.: Yes
Encoder: FLAC
Bitrate: ~1000 kBit/s (44.1 kHz/16 Bit/s)
Log & Cue incl.: Yes
Size: 442,38 MB
Password: “slam” (without ” “)


All Downloads/Hosters are compatible

Download 1
Share-online.biz
KatFile.com
Rapidgator.net
Download 2
Share-online.biz
KatFile.com
Rapidgator.net

Tracklist:

1 - Cráneo Candente - 4:14
2 - Masa Anestesiada - 4:42
3 - Desterrando A Los Oscurantistas - 2:31
4 - Víctimas Del Vaciamiento - 3:42
5 - Tú Eres Su Seguridad - 5:00
6 - Sepulcro Civil - 2:55
7 - Vida Impersonal - 3:22
8 - Desde El Oeste - 3:19
9 - Pare Que No Caigas - 3:01
10 - Deja De Robar - 3:11
11 - Yo No Lo Haré - 3:54
12 - Vencedores Vencidos - 2:40
13 - Ideando La Fuga - 2:53
14 - Cambalache - 2:34
15 - Destrucción - 2:11
16 - No Class - 2:10
17 - Por Que Hoy No Nací - 4:56

EAC-Log, CUE-Sheed & NFO:

Click to open spoiler
EAC extraction logfile from 18. June 2007, 13:15 for CD
Hermética / Hermética + Intérpretes

Used drive : SONY CD-RW CRX225E Adapter: 0 ID: 1
Read mode : Secure with NO C2, accurate stream, disable cache
Read offset correction : 6
Overread into Lead-In and Lead-Out : No

Used output format : C:\Archivos de programa\Exact Audio Copy\FLAC.EXE (User Defined Encoder)
32 kBit/s
Additional command line options : -6 -V -T “artist=%a” -T “title=%t” -T “album=%g” -T “date=%y” -T “tracknumber=%n” -T “genre=%m” -T “comment=EAC 0.9beta4 / FLAC 1.1.0 q6” %s

Other options :
Fill up missing offset samples with silence : Yes
Delete leading and trailing silent blocks : No
Native Win32 interface for Win NT & 2000

Range status and errors
Selected range
Filename D:\MMT\LOSSLESS\HERMETICA [(1989-1990)] [1CD] HERMETICA+INTERPRETES (Reissue 1991) [EAC-FLAC] BY APHET [MeTaLMaDNeSS. TeaM]\Hermética+Intérpretes.FLAC.wav

Peak level 88.8 %
Range quality 100.0 %
CRC A24C117C
Copy OK

No errors occured

End of status report

PERFORMER “Hermética”
TITLE “Hermética + Intérpretes”
FILE “Hermetica+Interpretes.flac” WAVE
TRACK 01 AUDIO
TITLE “Craneo Candente”
PERFORMER “Hermética”
INDEX 01 00:00:00
TRACK 02 AUDIO
TITLE “Masa Anestesiada”
PERFORMER “Hermética”
INDEX 00 04:21:48
INDEX 01 04:22:45
TRACK 03 AUDIO
TITLE “Desterrando A Los Oscurantistas”
PERFORMER “Hermética”
INDEX 01 09:14:08
TRACK 04 AUDIO
TITLE “Victimas Del Vaciamiento”
PERFORMER “Hermética”
INDEX 00 11:51:60
INDEX 01 11:53:15
TRACK 05 AUDIO
TITLE “Tu Eres Su Seguridad”
PERFORMER “Hermética”
INDEX 01 15:40:38
TRACK 06 AUDIO
TITLE “Sepulcro Civil”
PERFORMER “Hermética”
INDEX 00 20:43:32
INDEX 01 20:45:08
TRACK 07 AUDIO
TITLE “Vida Impersonal”
PERFORMER “Hermética”
INDEX 01 23:45:38
TRACK 08 AUDIO
TITLE “Desde El Oeste”
PERFORMER “Hermética”
INDEX 00 27:07:29
INDEX 01 27:08:45
TRACK 09 AUDIO
TITLE “Para Que No Caigas”
PERFORMER “Hermética”
INDEX 01 30:21:70
TRACK 10 AUDIO
TITLE “Deja De Robar”
PERFORMER “Hermética”
INDEX 01 33:32:13
TRACK 11 AUDIO
TITLE “Yo No Lo Haré”
PERFORMER “Hermética”
INDEX 01 36:48:30
TRACK 12 AUDIO
TITLE “Vencedores Vencidos”
PERFORMER “Hermética”
INDEX 00 40:49:54
INDEX 01 40:51:30
TRACK 13 AUDIO
TITLE “Ideando La Fuga”
PERFORMER “Hermética”
INDEX 00 43:29:52
INDEX 01 43:31:60
TRACK 14 AUDIO
TITLE “Cambalache”
PERFORMER “Hermética”
INDEX 01 46:25:53
TRACK 15 AUDIO
TITLE “Destrucción”
PERFORMER “Hermética”
INDEX 00 48:58:46
INDEX 01 48:59:73
TRACK 16 AUDIO
TITLE “No Class”
PERFORMER “Hermética”
INDEX 01 51:11:43
TRACK 17 AUDIO
TITLE “Por Que Hoy Nací”
PERFORMER “Hermética”
INDEX 01 53:21:55


Spread the Download

Leave a Reply

Your email address will not be published. Required fields are marked *

Enter the text from the image below
 

This site uses Akismet to reduce spam. Learn how your comment data is processed.