Herbert Grönemeyer – Zwo




Artist: Herbert Grönemeyer
Year: 1980/1989
Genre: Rock
Notes: Discogs
Add. Notes:
Cover incl.: Yes
Encoder: FLAC
Bitrate: ~700 kBit/s (44.1 kHz/16 Bit/s)
Log & Cue incl.: Yes
Size: 189,17 MB
Password: “slam” (without ” “)


All Downloads/Hosters are compatible

Download 1
Turbobit.net
Rapidgator.net
KatFile.com
UploadRar.com
Download 2
Turbobit.net
Rapidgator.net
KatFile.com
UploadRar.com
Download 3
Turbobit.net
Rapidgator.net
KatFile.com
UploadRar.com

Tracklist:

1 - Stau - 3:16
2 - Ich Hab' Dich Lieb - 3:54
3 - Commander - 3:26
4 - Bruno - 2:55
5 - Ich Bin Wieder Soweit - 4:37
6 - Kairo - 3:46
7 - Besser Du Gehst Jetzt - 4:29
8 - Helga - 4:14
9 - All Die Jahre - 3:35
10 - Muskeln - 3:25

EAC-Log, CUE-Sheed & NFO:

Click to open spoiler
Exact Audio Copy V0.99 prebeta 5 from 4. May 2009

EAC extraction logfile from 13. December 2011, 12:34

Herbert Grönemeyer / Zwo

Used drive : PIONEER DVD RW DVR-109 Adapter: 0 ID: 0

Read mode : Secure
Utilize accurate stream : Yes
Defeat audio cache : Yes
Make use of C2 pointers : No

Read offset correction : 48
Overread into Lead-In and Lead-Out : No
Fill up missing offset samples with silence : Yes
Delete leading and trailing silent blocks : No
Null samples used in CRC calculations : Yes
Used interface : Installed external ASPI interface

Used output format : Internal WAV Routines
Sample format : 44.100 Hz; 16 Bit; Stereo

TOC of the extracted CD

Track | Start | Length | Start sector | End sector
———————————————————
1 | 0:00.00 | 3:18.05 | 0 | 14854
2 | 3:18.05 | 3:56.07 | 14855 | 32561
3 | 7:14.12 | 3:28.55 | 32562 | 48216
4 | 10:42.67 | 2:56.38 | 48217 | 61454
5 | 13:39.30 | 4:35.42 | 61455 | 82121
6 | 18:14.72 | 3:49.40 | 82122 | 99336
7 | 22:04.37 | 4:30.63 | 99337 | 119649
8 | 26:35.25 | 4:16.27 | 119650 | 138876
9 | 30:51.52 | 3:35.03 | 138877 | 155004
10 | 34:26.55 | 3:26.07 | 155005 | 170461

Range status and errors

Selected range

Filename G:\Audio\Groenemeyer\Herbert Grönemeyer – Zwo.wav

Peak level 89.4 %
Range quality 100.0 %
Test CRC D2159B5B
Copy CRC D2159B5B
Copy OK

No errors occurred

AccurateRip summary

Track 1 accurately ripped (confidence 17) [6F1B5322]
Track 2 accurately ripped (confidence 17) [4FEF6CB8]
Track 3 accurately ripped (confidence 17) [7BA891C9]
Track 4 accurately ripped (confidence 17) [C638484A]
Track 5 accurately ripped (confidence 17) [4CE79F44]
Track 6 accurately ripped (confidence 17) [9E27D10F]
Track 7 accurately ripped (confidence 17) [B8447115]
Track 8 accurately ripped (confidence 17) [F0102ED8]
Track 9 accurately ripped (confidence 17) [2F6CB7CE]
Track 10 accurately ripped (confidence 16) [A3F4D444]

All tracks accurately ripped

End of status report

REM GENRE “Deutsch Rock”
REM DATE 1980
REM DISCID 7D08E00A
REM COMMENT “ExactAudioCopy v0.99pb5”
PERFORMER “Herbert Grönemeyer”
TITLE “Zwo”
FILE “Herbert Grönemeyer – Zwo.flac” FLAC
TRACK 01 AUDIO
TITLE “Stau”
PERFORMER “Herbert Grönemeyer”
INDEX 01 00:00:00
TRACK 02 AUDIO
TITLE “Ich hab’ Dich lieb”
PERFORMER “Herbert Grönemeyer”
INDEX 00 03:15:52
INDEX 01 03:18:05
TRACK 03 AUDIO
TITLE “Commander”
PERFORMER “Herbert Grönemeyer”
INDEX 00 07:11:65
INDEX 01 07:14:12
TRACK 04 AUDIO
TITLE “Bruno”
PERFORMER “Herbert Grönemeyer”
INDEX 00 10:40:60
INDEX 01 10:42:67
TRACK 05 AUDIO
TITLE “Ich bin wieder soweit”
PERFORMER “Herbert Grönemeyer”
INDEX 00 13:37:00
INDEX 01 13:39:30
TRACK 06 AUDIO
TITLE “Kairo”
PERFORMER “Herbert Grönemeyer”
INDEX 00 18:12:57
INDEX 01 18:14:72
TRACK 07 AUDIO
TITLE “Besser Du gehst jetzt”
PERFORMER “Herbert Grönemeyer”
INDEX 00 22:02:22
INDEX 01 22:04:37
TRACK 08 AUDIO
TITLE “Helga”
PERFORMER “Herbert Grönemeyer”
INDEX 00 26:33:02
INDEX 01 26:35:25
TRACK 09 AUDIO
TITLE “All die Jahre”
PERFORMER “Herbert Grönemeyer”
INDEX 00 30:49:05
INDEX 01 30:51:52
TRACK 10 AUDIO
TITLE “Muskeln”
PERFORMER “Herbert Grönemeyer”
INDEX 00 34:25:02
INDEX 01 34:26:55


Leave a Reply

Your email address will not be published. Required fields are marked *

This site uses Akismet to reduce spam. Learn how your comment data is processed.