Herbert Grönemeyer – Was Muss Muss – Best Of




Artist: Herbert Grönemeyer
Year: 2008
Genre: Rock
Notes: Discogs
Add. Notes:
Cover incl.: Yes
Encoder: FLAC
Bitrate: ~900 kBit/s (44.1 kHz/16 Bit/s)
Log & Cue incl.: Yes
Size: 1013,44 MB
Password: “slam” (without ” “)


All Downloads/Hosters are compatible

Download 1
Turbobit.net
Rapidgator.net
UploadEver.com
KatFile.com
UsersDrive.com
Download 2
Turbobit.net
Rapidgator.net
UploadEver.com
KatFile.com
UsersDrive.com
Download 3
Turbobit.net
Rapidgator.net
UploadEver.com
KatFile.com
UsersDrive.com

Tracklist:

1-01. Mensch 
1-02. Kopf Hoch, Tanzen 
1-03. Glück 
1-04. Fisch Im Netz 
1-05. Fanatisch 
1-06. Demo (Letzter Tag) 
1-07. Zum Meer 
1-08. Der Weg 
1-09. Bleibt Alles Anders 
1-10. Chaos 
1-11. Du Bist Die 
1-12. Land Unter 
1-13. Zeit, Dass Sich Was Dreht 
1-14. Ich Dreh Mich Um Dich 
1-15. Die Härte 
1-16. Leb In Meiner Welt 
1-17. Stück Vom Himmel 
2-01. Was Soll Das 
2-02. Männer 
2-03. Kinder An Die Macht 
2-04. Flugzeuge Im Bauch 
2-05. Musik Nur, Wenn Sie Laut Ist 
2-06. Deine Liebe Klebt 
2-07. Halt Mich 
2-08. Kaufen 
2-09. Vollmond 
2-10. Komet 
2-11. Luxus 
2-12. Bochum 
2-13. Alkohol 
2-14. Marie 
2-15. Total Egal 
2-16. Currywurst 
2-17. Mambo 
2-18. Ich Hab Dich Lieb (Live) 
2-19. Will I Ever Learn

EAC-Log, CUE-Sheed & NFO:

Click to open spoiler
Exact Audio Copy V0.99 prebeta 5 from 4. May 2009

EAC extraction logfile from 18. October 2011, 21:32

Herbert Grönemeyer / Was Muss Muss – Best Of (Cd 1)

Used drive : PIONEER DVD RW DVR-109 Adapter: 0 ID: 0

Read mode : Secure
Utilize accurate stream : Yes
Defeat audio cache : Yes
Make use of C2 pointers : No

Read offset correction : 48
Overread into Lead-In and Lead-Out : No
Fill up missing offset samples with silence : Yes
Delete leading and trailing silent blocks : No
Null samples used in CRC calculations : Yes
Used interface : Installed external ASPI interface

Used output format : Internal WAV Routines
Sample format : 44.100 Hz; 16 Bit; Stereo

TOC of the extracted CD

Track | Start | Length | Start sector | End sector
———————————————————
1 | 0:00.00 | 4:30.24 | 0 | 20273
2 | 4:30.24 | 3:55.42 | 20274 | 37940
3 | 8:25.66 | 4:05.01 | 37941 | 56316
4 | 12:30.67 | 4:25.46 | 56317 | 76237
5 | 16:56.38 | 4:04.60 | 76238 | 94597
6 | 21:01.23 | 3:29.54 | 94598 | 110326
7 | 24:31.02 | 5:38.71 | 110327 | 135747
8 | 30:09.73 | 4:19.26 | 135748 | 155198
9 | 34:29.24 | 4:43.65 | 155199 | 176488
10 | 39:13.14 | 4:51.15 | 176489 | 198328
11 | 44:04.29 | 3:46.64 | 198329 | 215342
12 | 47:51.18 | 5:02.69 | 215343 | 238061
13 | 52:54.12 | 5:05.51 | 238062 | 260987
14 | 57:59.63 | 4:50.12 | 260988 | 282749
15 | 62:50.00 | 3:43.26 | 282750 | 299500
16 | 66:33.26 | 4:25.26 | 299501 | 319401
17 | 70:58.52 | 4:06.19 | 319402 | 337870

Range status and errors

Selected range

Filename G:\Audio\Groenemeyer\Herbert Grönemeyer – Was Muss Muss – Best Of (Cd 1).wav

Peak level 100.0 %
Range quality 100.0 %
Test CRC 0C784EA9
Copy CRC 0C784EA9
Copy OK

No errors occurred

AccurateRip summary

Track 1 accurately ripped (confidence 200) [31106489]
Track 2 accurately ripped (confidence 200) [CAED6F10]
Track 3 accurately ripped (confidence 200) [46EEEAFB]
Track 4 accurately ripped (confidence 200) [2B5DB9E5]
Track 5 accurately ripped (confidence 200) [732CABBC]
Track 6 accurately ripped (confidence 200) [1BF46EBF]
Track 7 accurately ripped (confidence 200) [F09824B0]
Track 8 accurately ripped (confidence 200) [D69C7E32]
Track 9 accurately ripped (confidence 200) [F57C625E]
Track 10 accurately ripped (confidence 200) [F89B3DD9]
Track 11 accurately ripped (confidence 200) [F1F7BAC0]
Track 12 accurately ripped (confidence 200) [89C0C014]
Track 13 accurately ripped (confidence 200) [ECF653A0]
Track 14 accurately ripped (confidence 200) [CC971099]
Track 15 accurately ripped (confidence 200) [5A3C9A0B]
Track 16 accurately ripped (confidence 200) [E8AC4B13]
Track 17 accurately ripped (confidence 200) [7B484738]

All tracks accurately ripped

End of status report

Exact Audio Copy V0.99 prebeta 5 from 4. May 2009

EAC extraction logfile from 19. October 2011, 17:50

Herbert Grönemeyer / Was Muss Muss-Best Of (Cd 2)

Used drive : PIONEER DVD RW DVR-109 Adapter: 0 ID: 0

Read mode : Secure
Utilize accurate stream : Yes
Defeat audio cache : Yes
Make use of C2 pointers : No

Read offset correction : 48
Overread into Lead-In and Lead-Out : No
Fill up missing offset samples with silence : Yes
Delete leading and trailing silent blocks : No
Null samples used in CRC calculations : Yes
Used interface : Installed external ASPI interface

Used output format : Internal WAV Routines
Sample format : 44.100 Hz; 16 Bit; Stereo

TOC of the extracted CD

Track | Start | Length | Start sector | End sector
———————————————————
1 | 0:00.00 | 4:47.63 | 0 | 21587
2 | 4:47.63 | 3:58.60 | 21588 | 39497
3 | 8:46.48 | 3:56.40 | 39498 | 57237
4 | 12:43.13 | 3:54.24 | 57238 | 74811
5 | 16:37.37 | 3:27.68 | 74812 | 90404
6 | 20:05.30 | 4:22.50 | 90405 | 110104
7 | 24:28.05 | 3:27.36 | 110105 | 125665
8 | 27:55.41 | 4:37.74 | 125666 | 146514
9 | 32:33.40 | 5:04.12 | 146515 | 169326
10 | 37:37.52 | 5:35.15 | 169327 | 194466
11 | 43:12.67 | 4:38.39 | 194467 | 215355
12 | 47:51.31 | 3:49.52 | 215356 | 232582
13 | 51:41.08 | 4:29.31 | 232583 | 252788
14 | 56:10.39 | 4:28.72 | 252789 | 272960
15 | 60:39.36 | 3:48.10 | 272961 | 290070
16 | 64:27.46 | 2:00.22 | 290071 | 299092
17 | 66:27.68 | 2:49.15 | 299093 | 311782
18 | 69:17.08 | 4:30.66 | 311783 | 332098
19 | 73:47.74 | 3:51.24 | 332099 | 349447

Range status and errors

Selected range

Filename G:\Audio\Groenemeyer\Herbert Grönemeyer – Was Muss Muss-Best Of (Cd 2).wav

Peak level 99.9 %
Range quality 100.0 %
Test CRC C3D4C765
Copy CRC C3D4C765
Copy OK

No errors occurred

AccurateRip summary

Track 1 accurately ripped (confidence 200) [63AD3C1E]
Track 2 accurately ripped (confidence 200) [1D307EA3]
Track 3 accurately ripped (confidence 200) [EB297258]
Track 4 accurately ripped (confidence 200) [7E13038C]
Track 5 accurately ripped (confidence 200) [7BF814A7]
Track 6 accurately ripped (confidence 200) [6949FCDB]
Track 7 accurately ripped (confidence 200) [AA0AE78F]
Track 8 accurately ripped (confidence 200) [472A9A19]
Track 9 accurately ripped (confidence 200) [46BCEDC5]
Track 10 accurately ripped (confidence 200) [C4A2851B]
Track 11 accurately ripped (confidence 200) [33EACCC7]
Track 12 accurately ripped (confidence 200) [84BEE7CC]
Track 13 accurately ripped (confidence 200) [57D51F02]
Track 14 accurately ripped (confidence 200) [3FCCAF18]
Track 15 accurately ripped (confidence 200) [E3DA6315]
Track 16 accurately ripped (confidence 200) [3F87BF80]
Track 17 accurately ripped (confidence 200) [4EBA80CF]
Track 18 accurately ripped (confidence 200) [6F3FAD4D]
Track 19 accurately ripped (confidence 200) [D093F47F]

All tracks accurately ripped

End of status report

REM GENRE Rock
REM DATE 2008
REM DISCID F0119811
REM COMMENT “ExactAudioCopy v0.99pb5”
PERFORMER “Herbert Grönemeyer”
TITLE “Was Muss Muss – Best Of (Cd 1)”
FILE “Herbert Grönemeyer – Was Muss Muss – Best Of (Cd 1).flac” FLAC
TRACK 01 AUDIO
TITLE “Mensch”
PERFORMER “Herbert Grönemeyer”
INDEX 01 00:00:00
TRACK 02 AUDIO
TITLE “Kopf Hoch, Tanzen”
PERFORMER “Herbert Grönemeyer”
INDEX 00 04:28:67
INDEX 01 04:30:24
TRACK 03 AUDIO
TITLE “Glück”
PERFORMER “Herbert Grönemeyer”
INDEX 00 08:24:57
INDEX 01 08:25:66
TRACK 04 AUDIO
TITLE “Fisch Im Netz”
PERFORMER “Herbert Grönemeyer”
INDEX 00 12:29:46
INDEX 01 12:30:67
TRACK 05 AUDIO
TITLE “Fanatisch”
PERFORMER “Herbert Grönemeyer”
INDEX 01 16:56:38
TRACK 06 AUDIO
TITLE “Demo (Letzter Tag)”
PERFORMER “Herbert Grönemeyer”
INDEX 01 21:01:23
TRACK 07 AUDIO
TITLE “Zum Meer”
PERFORMER “Herbert Grönemeyer”
INDEX 00 24:29:55
INDEX 01 24:31:02
TRACK 08 AUDIO
TITLE “Der Weg”
PERFORMER “Herbert Grönemeyer”
INDEX 00 30:08:51
INDEX 01 30:09:73
TRACK 09 AUDIO
TITLE “Bleibt Alles Anders”
PERFORMER “Herbert Grönemeyer”
INDEX 00 34:25:63
INDEX 01 34:29:24
TRACK 10 AUDIO
TITLE “Chaos”
PERFORMER “Herbert Grönemeyer”
INDEX 00 39:11:65
INDEX 01 39:13:14
TRACK 11 AUDIO
TITLE “Du Bist Die”
PERFORMER “Herbert Grönemeyer”
INDEX 01 44:04:29
TRACK 12 AUDIO
TITLE “Land Unter”
PERFORMER “Herbert Grönemeyer”
INDEX 00 47:49:21
INDEX 01 47:51:18
TRACK 13 AUDIO
TITLE “Zeit, Dass Sich Was Dreht”
PERFORMER “Herbert Grönemeyer”
INDEX 01 52:54:12
TRACK 14 AUDIO
TITLE “Ich Dreh Mich Um Dich”
PERFORMER “Herbert Grönemeyer”
INDEX 00 57:59:05
INDEX 01 57:59:63
TRACK 15 AUDIO
TITLE “Die Härte”
PERFORMER “Herbert Grönemeyer”
INDEX 00 62:49:48
INDEX 01 62:50:00
TRACK 16 AUDIO
TITLE “Leb In Meiner Welt”
PERFORMER “Herbert Grönemeyer”
INDEX 01 66:33:26
TRACK 17 AUDIO
TITLE “Stück Vom Himmel”
PERFORMER “Herbert Grönemeyer”
INDEX 00 70:56:02
INDEX 01 70:58:52

REM GENRE Rock
REM DATE 2008
REM DISCID 4C123313
REM COMMENT “ExactAudioCopy v0.99pb5”
PERFORMER “Herbert Grönemeyer”
TITLE “Was Muss Muss-Best Of (Cd 2)”
FILE “Herbert Grönemeyer – Was Muss Muss-Best Of (Cd 2).flac” FLAC
TRACK 01 AUDIO
TITLE “Was Soll Das”
PERFORMER “Herbert Grönemeyer”
INDEX 01 00:00:00
TRACK 02 AUDIO
TITLE “Männer”
PERFORMER “Herbert Grönemeyer”
INDEX 00 04:46:40
INDEX 01 04:47:63
TRACK 03 AUDIO
TITLE “Kinder An Die Macht”
PERFORMER “Herbert Grönemeyer”
INDEX 00 08:46:07
INDEX 01 08:46:48
TRACK 04 AUDIO
TITLE “Flugzeuge Im Bauch”
PERFORMER “Herbert Grönemeyer”
INDEX 00 12:41:43
INDEX 01 12:43:13
TRACK 05 AUDIO
TITLE “Musik Nur, Wenn Sie Laut Ist”
PERFORMER “Herbert Grönemeyer”
INDEX 00 16:35:52
INDEX 01 16:37:37
TRACK 06 AUDIO
TITLE “Deine Liebe Klebt”
PERFORMER “Herbert Grönemeyer”
INDEX 00 20:03:70
INDEX 01 20:05:30
TRACK 07 AUDIO
TITLE “Halt Mich”
PERFORMER “Herbert Grönemeyer”
INDEX 00 24:26:63
INDEX 01 24:28:05
TRACK 08 AUDIO
TITLE “Kaufen”
PERFORMER “Herbert Grönemeyer”
INDEX 00 27:54:24
INDEX 01 27:55:41
TRACK 09 AUDIO
TITLE “Vollmond”
PERFORMER “Herbert Grönemeyer”
INDEX 00 32:32:14
INDEX 01 32:33:40
TRACK 10 AUDIO
TITLE “Komet”
PERFORMER “Herbert Grönemeyer”
INDEX 00 37:36:74
INDEX 01 37:37:52
TRACK 11 AUDIO
TITLE “Luxus”
PERFORMER “Herbert Grönemeyer”
INDEX 00 43:12:05
INDEX 01 43:12:67
TRACK 12 AUDIO
TITLE “Bochum”
PERFORMER “Herbert Grönemeyer”
INDEX 00 47:51:03
INDEX 01 47:51:31
TRACK 13 AUDIO
TITLE “Alkohol”
PERFORMER “Herbert Grönemeyer”
INDEX 00 51:39:48
INDEX 01 51:41:08
TRACK 14 AUDIO
TITLE “Marie”
PERFORMER “Herbert Grönemeyer”
INDEX 00 56:08:62
INDEX 01 56:10:39
TRACK 15 AUDIO
TITLE “Total Egal”
PERFORMER “Herbert Grönemeyer”
INDEX 00 60:38:13
INDEX 01 60:39:36
TRACK 16 AUDIO
TITLE “Currywurst”
PERFORMER “Herbert Grönemeyer”
INDEX 00 64:25:32
INDEX 01 64:27:46
TRACK 17 AUDIO
TITLE “Mambo”
PERFORMER “Herbert Grönemeyer”
INDEX 00 66:24:57
INDEX 01 66:27:68
TRACK 18 AUDIO
TITLE “Ich Hab Dich Lieb (Live)”
PERFORMER “Herbert Grönemeyer”
INDEX 00 69:15:57
INDEX 01 69:17:08
TRACK 19 AUDIO
TITLE “Will I Ever Learn (Feat. Antony)”
PERFORMER “Herbert Grönemeyer”
INDEX 00 73:46:07
INDEX 01 73:47:74

Leave a Reply

Your email address will not be published. Required fields are marked *

Enter the text from the image below
 

This site uses Akismet to reduce spam. Learn how your comment data is processed.