Herbert Grönemeyer – Unplugged Herbert




Artist: Herbert Grönemeyer
Year: 1995
Genre: Rock
Notes: Discogs
Add. Notes:
Cover incl.: Yes
Encoder: FLAC
Bitrate: ~900 kBit/s (44.1 kHz/16 Bit/s)
Log & Cue incl.: Yes
Size: 511,42 MB
Password: “slam” (without ” “)


All Downloads/Hosters are compatible

Download 1
Turbobit.net
Rapidgator.net
KatFile.com
UploadRar.com
Download 2
Turbobit.net
Rapidgator.net
KatFile.com
UploadRar.com
Download 3
Turbobit.net
Rapidgator.net
KatFile.com
UploadRar.com

Tracklist:

1 - Chaos - 4:45
2 - Keine Garantie - 5:15
3 - Halt Mich - 3:30
4 - Ich Will Mehr - 4:40
5 - Vollmond - 5:39
6 - Tanzen - 5:30
7 - Land Unter - 5:06
8 - Morgenrot - 4:24
9 - Die Welle - 4:27
10 - Flugzeuge Im Bauch - 4:12
11 - Alkohol - 4:52
12 - Die Härte - 3:57
13 - Unterwegs - 5:26
14 - Männer - 4:07
15 - Bloß Geliebt - 4:49
16 - Luxus - 5:29

EAC-Log, CUE-Sheed & NFO:

Click to open spoiler
Exact Audio Copy V0.99 prebeta 5 from 4. May 2009

EAC extraction logfile from 20. October 2011, 18:53

Herbert Grönemeyer / Unplugged

Used drive : PIONEER DVD RW DVR-109 Adapter: 0 ID: 0

Read mode : Secure
Utilize accurate stream : Yes
Defeat audio cache : Yes
Make use of C2 pointers : No

Read offset correction : 48
Overread into Lead-In and Lead-Out : No
Fill up missing offset samples with silence : Yes
Delete leading and trailing silent blocks : No
Null samples used in CRC calculations : Yes
Used interface : Installed external ASPI interface

Used output format : Internal WAV Routines
Sample format : 44.100 Hz; 16 Bit; Stereo

TOC of the extracted CD

Track | Start | Length | Start sector | End sector
———————————————————
1 | 0:00.00 | 4:45.15 | 0 | 21389
2 | 4:45.15 | 5:15.32 | 21390 | 45046
3 | 10:00.47 | 3:30.33 | 45047 | 60829
4 | 13:31.05 | 4:40.40 | 60830 | 81869
5 | 18:11.45 | 5:39.25 | 81870 | 107319
6 | 23:50.70 | 5:30.32 | 107320 | 132101
7 | 29:21.27 | 5:06.03 | 132102 | 155054
8 | 34:27.30 | 4:24.60 | 155055 | 174914
9 | 38:52.15 | 4:27.27 | 174915 | 194966
10 | 43:19.42 | 4:12.30 | 194967 | 213896
11 | 47:31.72 | 4:52.43 | 213897 | 235839
12 | 52:24.40 | 3:57.57 | 235840 | 253671
13 | 56:22.22 | 5:26.63 | 253672 | 278184
14 | 61:49.10 | 4:07.45 | 278185 | 296754
15 | 65:56.55 | 4:49.52 | 296755 | 318481
16 | 70:46.32 | 5:29.00 | 318482 | 343156

Range status and errors

Selected range

Filename G:\Audio\Herbert Grönemeyer – Unplugged.wav

Peak level 100.0 %
Range quality 100.0 %
Test CRC 438F03EB
Copy CRC 438F03EB
Copy OK

No errors occurred

AccurateRip summary

Track 1 accurately ripped (confidence 181) [FE4EC6F5]
Track 2 accurately ripped (confidence 183) [F4907A30]
Track 3 accurately ripped (confidence 182) [810CDA8F]
Track 4 accurately ripped (confidence 182) [43659B4F]
Track 5 accurately ripped (confidence 179) [6A14BEE4]
Track 6 accurately ripped (confidence 181) [9DB3CDE9]
Track 7 accurately ripped (confidence 181) [C4B79CAE]
Track 8 accurately ripped (confidence 180) [583513AE]
Track 9 accurately ripped (confidence 181) [DEB02168]
Track 10 accurately ripped (confidence 182) [AABEC195]
Track 11 accurately ripped (confidence 182) [FDB75512]
Track 12 accurately ripped (confidence 182) [3BB857BD]
Track 13 accurately ripped (confidence 178) [2AC8F8D5]
Track 14 accurately ripped (confidence 182) [FC9F8633]
Track 15 accurately ripped (confidence 173) [658B5635]
Track 16 accurately ripped (confidence 173) [AFCFD05F]

All tracks accurately ripped

End of status report

REM GENRE Deutsch
REM DATE 1995
REM DISCID DE11DF10
REM COMMENT “ExactAudioCopy v0.99pb5”
PERFORMER “Herbert Grönemeyer”
TITLE “Unplugged”
FILE “Herbert Grönemeyer – Unplugged.flac” FLAC
TRACK 01 AUDIO
TITLE “Chaos (unplugged)”
PERFORMER “Herbert Grönemeyer”
INDEX 01 00:00:00
TRACK 02 AUDIO
TITLE “Keine Garantie (unplugged)”
PERFORMER “Herbert Grönemeyer”
INDEX 01 04:45:15
TRACK 03 AUDIO
TITLE “Halt mich (unplugged)”
PERFORMER “Herbert Grönemeyer”
INDEX 01 10:00:47
TRACK 04 AUDIO
TITLE “Ich will mehr (unplugged)”
PERFORMER “Herbert Grönemeyer”
INDEX 01 13:31:05
TRACK 05 AUDIO
TITLE “Vollmond (unplugged)”
PERFORMER “Herbert Grönemeyer”
INDEX 01 18:11:45
TRACK 06 AUDIO
TITLE “Tanzen (unplugged)”
PERFORMER “Herbert Grönemeyer”
INDEX 00 23:25:22
INDEX 01 23:50:70
TRACK 07 AUDIO
TITLE “Land unter (unplugged)”
PERFORMER “Herbert Grönemeyer”
INDEX 01 29:21:27
TRACK 08 AUDIO
TITLE “Morgenrot (unplugged)”
PERFORMER “Herbert Grönemeyer”
INDEX 01 34:27:30
TRACK 09 AUDIO
TITLE “Die Welle (unplugged)”
PERFORMER “Herbert Grönemeyer”
INDEX 00 38:28:02
INDEX 01 38:52:15
TRACK 10 AUDIO
TITLE “Flugzeuge im Bauch (unplugged)”
PERFORMER “Herbert Grönemeyer”
INDEX 01 43:19:42
TRACK 11 AUDIO
TITLE “Alkohol (unplugged)”
PERFORMER “Herbert Grönemeyer”
INDEX 01 47:31:72
TRACK 12 AUDIO
TITLE “Die Härte (unplugged)”
PERFORMER “Herbert Grönemeyer”
INDEX 01 52:24:40
TRACK 13 AUDIO
TITLE “Unterwegs (unplugged)”
PERFORMER “Herbert Grönemeyer”
INDEX 01 56:22:22
TRACK 14 AUDIO
TITLE “Männer (unplugged)”
PERFORMER “Herbert Grönemeyer”
INDEX 01 61:49:10
TRACK 15 AUDIO
TITLE “Bloß geliebt (unplugged)”
PERFORMER “Herbert Grönemeyer”
INDEX 01 65:56:55
TRACK 16 AUDIO
TITLE “Luxus (unplugged)”
PERFORMER “Herbert Grönemeyer”
INDEX 01 70:46:32


Leave a Reply

Your email address will not be published. Required fields are marked *

This site uses Akismet to reduce spam. Learn how your comment data is processed.