Herbert Grönemeyer – Total Egal




Artist: Herbert Grönemeyer
Year: 1982/1985
Genre: Rock
Notes: Discogs
Add. Notes:
Cover incl.: Yes
Encoder: FLAC
Bitrate: ~800 kBit/s (44.1 kHz/16 Bit/s)
Log & Cue incl.: Yes
Size: 219,01 MB
Password: “slam” (without ” “)


All Downloads/Hosters are compatible

Download 1
Turbobit.net
Rapidgator.net
KatFile.com
UploadRar.com
Download 2
Turbobit.net
Rapidgator.net
KatFile.com
UploadRar.com

Tracklist:

1 - Total Egal - 3:44
2 - 'n Bombenlied - 4:06
3 - Currywurst - 1:57
4 - Anna - 4:33
5 - So Gut - 5:26
6 - Frag Mich Nicht - 4:16
7 - Kino - 2:31
8 - Ich Will's Nicht - 3:33
9 - Darf Ich Mal - 3:14
10 - Vergiß Es, Laß Es - 4:54

EAC-Log, CUE-Sheed & NFO:

Click to open spoiler
Exact Audio Copy V0.99 prebeta 5 from 4. May 2009

EAC extraction logfile from 14. October 2011, 17:51

Herbert Grönemeyer / Total egal

Used drive : PIONEER DVD RW DVR-109 Adapter: 0 ID: 0

Read mode : Secure
Utilize accurate stream : Yes
Defeat audio cache : Yes
Make use of C2 pointers : No

Read offset correction : 48
Overread into Lead-In and Lead-Out : No
Fill up missing offset samples with silence : Yes
Delete leading and trailing silent blocks : No
Null samples used in CRC calculations : Yes
Used interface : Installed external ASPI interface

Used output format : Internal WAV Routines
Sample format : 44.100 Hz; 16 Bit; Stereo

TOC of the extracted CD

Track | Start | Length | Start sector | End sector
———————————————————
1 | 0:00.00 | 3:46.50 | 0 | 16999
2 | 3:46.50 | 4:07.45 | 17000 | 35569
3 | 7:54.20 | 2:00.03 | 35570 | 44572
4 | 9:54.23 | 4:34.72 | 44573 | 65194
5 | 14:29.20 | 5:25.50 | 65195 | 89619
6 | 19:54.70 | 4:18.18 | 89620 | 108987
7 | 24:13.13 | 2:33.22 | 108988 | 120484
8 | 26:46.35 | 3:34.48 | 120485 | 136582
9 | 30:21.08 | 3:17.22 | 136583 | 151379
10 | 33:38.30 | 4:53.50 | 151380 | 173404

Range status and errors

Selected range

Filename G:\Audio\Groenemeyer\Herbert Grönemeyer – Total egal.wav

Peak level 100.0 %
Range quality 99.9 %
Test CRC FD481567
Copy CRC FD481567
Copy OK

No errors occurred

AccurateRip summary

Track 1 accurately ripped (confidence 42) [FA4871AC]
Track 2 accurately ripped (confidence 44) [5814CBA2]
Track 3 accurately ripped (confidence 44) [6B743404]
Track 4 accurately ripped (confidence 43) [7465212B]
Track 5 accurately ripped (confidence 44) [E971DAA6]
Track 6 accurately ripped (confidence 43) [437B9FA6]
Track 7 accurately ripped (confidence 44) [F65BC57E]
Track 8 accurately ripped (confidence 44) [19B52020]
Track 9 accurately ripped (confidence 43) [FAA7994C]
Track 10 accurately ripped (confidence 43) [01AF8C23]

All tracks accurately ripped

End of status report

REM GENRE Pop-Folk
REM DATE 1982
REM DISCID 8409080A
REM COMMENT “ExactAudioCopy v0.99pb5”
PERFORMER “Herbert Grönemeyer”
TITLE “Total egal”
FILE “Herbert Grönemeyer – Total egal.flac” FLAC
TRACK 01 AUDIO
TITLE “Total egal”
PERFORMER “Herbert Grönemeyer”
INDEX 01 00:00:00
TRACK 02 AUDIO
TITLE “‘N Bombenlied”
PERFORMER “Herbert Grönemeyer”
INDEX 00 03:43:03
INDEX 01 03:46:50
TRACK 03 AUDIO
TITLE “Currywurst”
PERFORMER “Herbert Grönemeyer”
INDEX 00 07:51:58
INDEX 01 07:54:20
TRACK 04 AUDIO
TITLE “Anna”
PERFORMER “Herbert Grönemeyer”
INDEX 00 09:50:53
INDEX 01 09:54:23
TRACK 05 AUDIO
TITLE “So gut”
PERFORMER “Herbert Grönemeyer”
INDEX 00 14:26:40
INDEX 01 14:29:20
TRACK 06 AUDIO
TITLE “Frag’ mich nicht”
PERFORMER “Herbert Grönemeyer”
INDEX 01 19:54:70
TRACK 07 AUDIO
TITLE “Kino”
PERFORMER “Herbert Grönemeyer”
INDEX 00 24:10:33
INDEX 01 24:13:13
TRACK 08 AUDIO
TITLE “Ich will ‘s nicht”
PERFORMER “Herbert Grönemeyer”
INDEX 00 26:43:35
INDEX 01 26:46:35
TRACK 09 AUDIO
TITLE “Darf ich ‘mal”
PERFORMER “Herbert Grönemeyer”
INDEX 00 30:18:43
INDEX 01 30:21:08
TRACK 10 AUDIO
TITLE “Vergiss’ es, lass’ es”
PERFORMER “Herbert Grönemeyer”
INDEX 00 33:34:53
INDEX 01 33:38:30


Leave a Reply

Your email address will not be published. Required fields are marked *

This site uses Akismet to reduce spam. Learn how your comment data is processed.