Herbert Grönemeyer – Schiffsverkehr




Artist: Herbert Grönemeyer
Year: 2011
Genre: Rock
Notes: Discogs
Add. Notes:
Cover incl.: Yes
Encoder: FLAC
Bitrate: ~700 kBit/s (44.1 kHz/16 Bit/s)
Log & Cue incl.: Yes
Size: 296,79 MB
Password: “slam” (without ” “)


All Downloads/Hosters are compatible

Download 1
Turbobit.net
Rapidgator.net
KatFile.com
UploadRar.com
Download 2
Turbobit.net
Rapidgator.net
KatFile.com
UploadRar.com
Download 3
Turbobit.net
Rapidgator.net
KatFile.com
UploadRar.com

Tracklist:

1 - Schiffsverkehr - 3:57
2 - Kreuz Meinen Weg - 3:46
3 - Fernweh - 3:30
4 - Unfassbarer Grund - 2:53
5 - Deine Zeit - 3:50
6 - Erzähl Mir Von Morgen - 4:35
7 - Auf Dem Feld - 3:44
8 - Zu Dir - 3:56
9 - Wäre Ich Einfach Nur Feige - 3:31
10 - Lass Es Uns Nicht Regnen - 3:50
11a - So Wie Ich - 19:27
11b - November (Hidden Track) 

EAC-Log, CUE-Sheed & NFO:

Click to open spoiler
Exact Audio Copy V0.99 prebeta 5 from 4. May 2009

EAC extraction logfile from 4. October 2011, 16:09

Herbert Grönemeyer / Schiffsverkehr

Used drive : PIONEER DVD RW DVR-109 Adapter: 0 ID: 0

Read mode : Secure
Utilize accurate stream : Yes
Defeat audio cache : Yes
Make use of C2 pointers : No

Read offset correction : 48
Overread into Lead-In and Lead-Out : No
Fill up missing offset samples with silence : Yes
Delete leading and trailing silent blocks : No
Null samples used in CRC calculations : Yes
Used interface : Installed external ASPI interface

Used output format : Internal WAV Routines
Sample format : 44.100 Hz; 16 Bit; Stereo

TOC of the extracted CD

Track | Start | Length | Start sector | End sector
———————————————————
1 | 0:00.00 | 3:57.22 | 0 | 17796
2 | 3:57.22 | 3:46.02 | 17797 | 34748
3 | 7:43.24 | 3:30.02 | 34749 | 50500
4 | 11:13.26 | 2:53.39 | 50501 | 63514
5 | 14:06.65 | 3:50.14 | 63515 | 80778
6 | 17:57.04 | 4:35.08 | 80779 | 101411
7 | 22:32.12 | 3:43.71 | 101412 | 118207
8 | 26:16.08 | 3:56.69 | 118208 | 135976
9 | 30:13.02 | 3:31.24 | 135977 | 151825
10 | 33:44.26 | 3:50.51 | 151826 | 169126
11 | 37:35.02 | 19:27.20 | 169127 | 256671

Range status and errors

Selected range

Filename G:\Audio\Groenemeyer\Herbert Grönemeyer – Schiffsverkehr.wav

Peak level 99.8 %
Range quality 100.0 %
Test CRC 9392B4CF
Copy CRC 9392B4CF
Copy OK

No errors occurred

AccurateRip summary

Track 1 accurately ripped (confidence 65) [32C9B97D]
Track 2 accurately ripped (confidence 65) [576EA094]
Track 3 accurately ripped (confidence 65) [66C83BCD]
Track 4 accurately ripped (confidence 65) [1D0AF126]
Track 5 accurately ripped (confidence 65) [3E2D3246]
Track 6 accurately ripped (confidence 65) [B75B026E]
Track 7 accurately ripped (confidence 64) [565CC5B5]
Track 8 accurately ripped (confidence 65) [CED9B016]
Track 9 accurately ripped (confidence 64) [33D9D1C4]
Track 10 accurately ripped (confidence 65) [A0F3E898]
Track 11 accurately ripped (confidence 64) [B821B896]

All tracks accurately ripped

End of status report

REM GENRE Rock
REM DATE 2011
REM DISCID A10D5E0B
REM COMMENT “ExactAudioCopy v0.99pb5”
PERFORMER “Herbert Grönemeyer”
TITLE “Schiffsverkehr”
FILE “Herbert Grönemeyer – Schiffsverkehr.flac” FLAC
TRACK 01 AUDIO
TITLE “Schiffsverkehr”
PERFORMER “Herbert Grönemeyer”
FLAGS DCP
INDEX 01 00:00:00
TRACK 02 AUDIO
TITLE “Kreuz meinen Weg”
PERFORMER “Herbert Grönemeyer”
FLAGS DCP
INDEX 01 03:57:22
TRACK 03 AUDIO
TITLE “Fernweh”
PERFORMER “Herbert Grönemeyer”
FLAGS DCP
INDEX 01 07:43:24
TRACK 04 AUDIO
TITLE “Unfassbarer Grund”
PERFORMER “Herbert Grönemeyer”
FLAGS DCP
INDEX 01 11:13:26
TRACK 05 AUDIO
TITLE “Deine Zeit”
PERFORMER “Herbert Grönemeyer”
FLAGS DCP
INDEX 01 14:06:65
TRACK 06 AUDIO
TITLE “Erzähl mir von Morgen”
PERFORMER “Herbert Grönemeyer”
FLAGS DCP
INDEX 01 17:57:04
TRACK 07 AUDIO
TITLE “Auf dem Feld”
PERFORMER “Herbert Grönemeyer”
FLAGS DCP
INDEX 01 22:32:12
TRACK 08 AUDIO
TITLE “Zu Dir”
PERFORMER “Herbert Grönemeyer”
FLAGS DCP
INDEX 01 26:16:08
TRACK 09 AUDIO
TITLE “Wäre ich einfach nur feige”
PERFORMER “Herbert Grönemeyer”
FLAGS DCP
INDEX 01 30:13:02
TRACK 10 AUDIO
TITLE “Lass es uns nicht regnen”
PERFORMER “Herbert Grönemeyer”
FLAGS DCP
INDEX 01 33:44:26
TRACK 11 AUDIO
TITLE “So wie ich”
PERFORMER “Herbert Grönemeyer”
FLAGS DCP
INDEX 01 37:35:02


Leave a Reply

Your email address will not be published. Required fields are marked *

Enter the text from the image below
 

This site uses Akismet to reduce spam. Learn how your comment data is processed.