Herbert Grönemeyer – Ö




Artist: Herbert Grönemeyer
Year: 1988
Genre: Rock
Notes: Discogs
Add. Notes:
Cover incl.: Yes
Encoder: FLAC
Bitrate: ~900 kBit/s (44.1 kHz/16 Bit/s)
Log & Cue incl.: Yes
Size: 288,79 MB
Password: “slam” (without ” “)


All Downloads/Hosters are compatible

Download 1
Turbobit.net
Rapidgator.net
KatFile.com
UploadRar.com
UploadRive.com
Download 2
Turbobit.net
Rapidgator.net
KatFile.com
UploadRar.com
UploadRive.com

Tracklist:

1 - Was Soll Das - 4:33
2 - Vollmond - 4:30
3 - Komet - 5:19
4 - Mit Gott - 4:38
5 - Halt Mich - 3:25
6 - Keine Heimat - 3:39
7 - Herbsterwachen - 4:31
8 - Fragwürdig - 3:51
9 - Bist Du Taub - 4:04
10 - Was Soll Das (Verlängerter Neumix) - 6:15

EAC-Log, CUE-Sheed & NFO:

Click to open spoiler
Exact Audio Copy V0.99 prebeta 5 from 4. May 2009

EAC extraction logfile from 5. October 2011, 15:26

Herbert Grönemeyer / Ö

Used drive : PIONEER DVD RW DVR-109 Adapter: 0 ID: 0

Read mode : Secure
Utilize accurate stream : Yes
Defeat audio cache : Yes
Make use of C2 pointers : No

Read offset correction : 48
Overread into Lead-In and Lead-Out : No
Fill up missing offset samples with silence : Yes
Delete leading and trailing silent blocks : No
Null samples used in CRC calculations : Yes
Used interface : Installed external ASPI interface

Used output format : Internal WAV Routines
Sample format : 44.100 Hz; 16 Bit; Stereo

TOC of the extracted CD

Track | Start | Length | Start sector | End sector
———————————————————
1 | 0:00.00 | 4:38.10 | 0 | 20859
2 | 4:38.10 | 4:31.40 | 20860 | 41224
3 | 9:09.50 | 5:22.60 | 41225 | 65434
4 | 14:32.35 | 4:40.42 | 65435 | 86476
5 | 19:13.02 | 3:29.58 | 86477 | 102209
6 | 22:42.60 | 3:44.32 | 102210 | 119041
7 | 26:27.17 | 4:37.33 | 119042 | 139849
8 | 31:04.50 | 3:52.52 | 139850 | 157301
9 | 34:57.27 | 4:09.28 | 157302 | 176004
10 | 39:06.55 | 6:16.20 | 176005 | 204224

Range status and errors

Selected range

Filename G:\Audio\Groenemeyer\Herbert Grönemeyer – Ö.wav

Peak level 100.0 %
Range quality 100.0 %
Test CRC 6D6C727D
Copy CRC 6D6C727D
Copy OK

No errors occurred

AccurateRip summary

Track 1 accurately ripped (confidence 79) [AC806C6B]
Track 2 accurately ripped (confidence 78) [652E660D]
Track 3 accurately ripped (confidence 78) [02539EAF]
Track 4 accurately ripped (confidence 77) [63DEFE3D]
Track 5 accurately ripped (confidence 79) [DACB7B64]
Track 6 accurately ripped (confidence 77) [9E80DD0C]
Track 7 accurately ripped (confidence 78) [39EF7053]
Track 8 accurately ripped (confidence 79) [936AE7AE]
Track 9 accurately ripped (confidence 77) [492D2492]
Track 10 accurately ripped (confidence 76) [438DDDAB]

All tracks accurately ripped

End of status report

REM GENRE German*
REM DATE 1988
REM DISCID 950AA30A
REM COMMENT “ExactAudioCopy v0.99pb5”
PERFORMER “Herbert Grönemeyer”
TITLE “Ö”
FILE “Herbert Grönemeyer – Ö.flac” FLAC
TRACK 01 AUDIO
TITLE “Was Soll Das?”
PERFORMER “Herbert Grönemeyer”
INDEX 01 00:00:00
TRACK 02 AUDIO
TITLE “Vollmond”
PERFORMER “Herbert Grönemeyer”
INDEX 00 04:38:07
INDEX 01 04:38:10
TRACK 03 AUDIO
TITLE “Komet”
PERFORMER “Herbert Grönemeyer”
INDEX 00 09:09:47
INDEX 01 09:09:50
TRACK 04 AUDIO
TITLE “Mit Gott”
PERFORMER “Herbert Grönemeyer”
INDEX 00 14:32:32
INDEX 01 14:32:35
TRACK 05 AUDIO
TITLE “Halt Mich”
PERFORMER “Herbert Grönemeyer”
INDEX 00 19:13:00
INDEX 01 19:13:02
TRACK 06 AUDIO
TITLE “Keine Heimat”
PERFORMER “Herbert Grönemeyer”
INDEX 00 22:42:57
INDEX 01 22:42:60
TRACK 07 AUDIO
TITLE “Herbsterwachen”
PERFORMER “Herbert Grönemeyer”
INDEX 00 26:27:15
INDEX 01 26:27:17
TRACK 08 AUDIO
TITLE “Fragwürdig”
PERFORMER “Herbert Grönemeyer”
INDEX 00 31:04:47
INDEX 01 31:04:50
TRACK 09 AUDIO
TITLE “Bist Du Taub”
PERFORMER “Herbert Grönemeyer”
INDEX 00 34:57:25
INDEX 01 34:57:27
TRACK 10 AUDIO
TITLE “Was Soll Das? (Verlängerter Neumix)”
PERFORMER “Herbert Grönemeyer”
INDEX 00 39:06:52
INDEX 01 39:06:55


Leave a Reply

Your email address will not be published. Required fields are marked *

This site uses Akismet to reduce spam. Learn how your comment data is processed.