Herbert Grönemeyer – Mensch




Artist: Herbert Grönemeyer
Year: 2002
Genre: Rock
Notes: Discogs
Add. Notes:
Cover incl.: Yes
Encoder: FLAC
Bitrate: ~700 kBit/s (44.1 kHz/16 Bit/s)
Log & Cue incl.: Yes
Size: 325,32 MB
Password: “slam” (without ” “)


All Downloads/Hosters are compatible

Download 1
Turbobit.net
Rapidgator.net
UploadEver.com
KatFile.com
UsersDrive.com
Download 2
Turbobit.net
Rapidgator.net
UploadEver.com
KatFile.com
UsersDrive.com
Download 3
Turbobit.net
Rapidgator.net
UploadEver.com
KatFile.com
UsersDrive.com

Tracklist:

1 - Mensch 4:28
2 - Neuland 3:42
3 - Der Weg 4:18
4 - Viertel Vor 4:23
5 - Lache, Wenn Es Nicht Zum Weinen Reicht 4:42
6 - Unbewohnt 5:04
7 - Dort Und Hier 2:32
8 - Blick Zurück 5:54
9 - Kein Pokal 4:33
10 - Zum Meer 5:38
Bonus Track:
11.1 - Demo (Letzter Tag) 17:26
11.2 - Untitled 3:13

EAC-Log, CUE-Sheed & NFO:

Click to open spoiler
Exact Audio Copy V0.99 prebeta 5 from 4. May 2009

EAC extraction logfile from 25. November 2011, 19:27

Herbert Grönemeyer / Mensch

Used drive : PIONEER DVD RW DVR-109 Adapter: 0 ID: 0

Read mode : Secure
Utilize accurate stream : Yes
Defeat audio cache : Yes
Make use of C2 pointers : No

Read offset correction : 48
Overread into Lead-In and Lead-Out : No
Fill up missing offset samples with silence : Yes
Delete leading and trailing silent blocks : No
Null samples used in CRC calculations : Yes
Used interface : Installed external ASPI interface

Used output format : Internal WAV Routines
Sample format : 44.100 Hz; 16 Bit; Stereo

TOC of the extracted CD

Track | Start | Length | Start sector | End sector
———————————————————
1 | 0:00.00 | 4:28.07 | 0 | 20106
2 | 4:28.07 | 3:43.70 | 20107 | 36901
3 | 8:12.02 | 4:18.35 | 36902 | 56286
4 | 12:30.37 | 4:23.23 | 56287 | 76034
5 | 16:53.60 | 4:42.67 | 76035 | 97251
6 | 21:36.52 | 5:04.23 | 97252 | 120074
7 | 26:41.00 | 2:33.07 | 120075 | 131556
8 | 29:14.07 | 5:54.20 | 131557 | 158126
9 | 35:08.27 | 4:32.63 | 158127 | 178589
10 | 39:41.15 | 5:45.10 | 178590 | 204474
11 | 45:26.25 | 20:40.55 | 204475 | 297529
12 | 68:39.05 | 5:18.70 | 308930 | 332849

Range status and errors

Selected range

Filename G:\Audio\Nicole\Herbert Grönemeyer – Mensch.wav

Peak level 98.8 %
Range quality 100.0 %
Test CRC 98992521
Copy CRC 98992521
Copy OK

No errors occurred

AccurateRip summary

Track 1 accurately ripped (confidence 25) [AFF85680]
Track 2 accurately ripped (confidence 24) [C62E069B]
Track 3 cannot be verified as accurate (confidence 81) [3674A421], AccurateRip returned [9250AD96]
Track 4 accurately ripped (confidence 27) [672F7B1E]
Track 5 accurately ripped (confidence 25) [806CB55C]
Track 6 accurately ripped (confidence 22) [49C31E32]
Track 7 accurately ripped (confidence 24) [FF9ACC91]
Track 8 accurately ripped (confidence 18) [6A5FD122]
Track 9 accurately ripped (confidence 19) [9635B4B0]
Track 10 accurately ripped (confidence 20) [3282B0AC]
Track 11 cannot be verified as accurate (confidence 47) [C86CF81F], AccurateRip returned [2FCCD884]

9 track(s) accurately ripped
2 track(s) could not be verified as accurate

Some tracks could not be verified as accurate

End of status report

REM GENRE Rock
REM DATE 2002
REM DISCID 9111560C
REM COMMENT “ExactAudioCopy v0.99pb5”
PERFORMER “Herbert Grönemeyer”
TITLE “Mensch”
FILE “Herbert Grönemeyer – Mensch.flac” FLAC
TRACK 01 AUDIO
TITLE “Mensch”
PERFORMER “Herbert Grönemeyer”
INDEX 01 00:00:00
TRACK 02 AUDIO
TITLE “Neuland”
PERFORMER “Herbert Grönemeyer”
INDEX 01 04:28:07
TRACK 03 AUDIO
TITLE “Der Weg”
PERFORMER “Herbert Grönemeyer”
INDEX 00 08:10:35
INDEX 01 08:12:02
TRACK 04 AUDIO
TITLE “Viertel vor”
PERFORMER “Herbert Grönemeyer”
INDEX 01 12:30:37
TRACK 05 AUDIO
TITLE “Lache, wenn es nicht zum Weinen reicht”
PERFORMER “Herbert Grönemeyer”
INDEX 01 16:53:60
TRACK 06 AUDIO
TITLE “Unbewohnt”
PERFORMER “Herbert Grönemeyer”
INDEX 00 21:35:25
INDEX 01 21:36:52
TRACK 07 AUDIO
TITLE “Dort und hier”
PERFORMER “Herbert Grönemeyer”
INDEX 01 26:41:00
TRACK 08 AUDIO
TITLE “Blick zurück”
PERFORMER “Herbert Grönemeyer”
INDEX 01 29:14:07
TRACK 09 AUDIO
TITLE “Kein Pokal”
PERFORMER “Herbert Grönemeyer”
INDEX 01 35:08:27
TRACK 10 AUDIO
TITLE “Zum Meer”
PERFORMER “Herbert Grönemeyer”
INDEX 01 39:41:15
TRACK 11 AUDIO
TITLE “Demo (Letzter Tag) Felix’ Song (Hidden Track!)”
PERFORMER “Herbert Grönemeyer”
INDEX 00 45:18:57
INDEX 01 45:26:25


Leave a Reply

Your email address will not be published. Required fields are marked *

This site uses Akismet to reduce spam. Learn how your comment data is processed.