Herbert Grönemeyer – Luxus




Artist: Herbert Grönemeyer
Year: 1990
Genre: Rock
Notes: Discogs
Add. Notes:
Cover incl.: Yes
Encoder: FLAC
Bitrate: ~900 kBit/s (44.1 kHz/16 Bit/s)
Log & Cue incl.: Yes
Size: 258,74 MB
Password: “slam” (without ” “)


All Downloads/Hosters are compatible

Download 1
Turbobit.net
Rapidgator.net
UploadEver.com
KatFile.com
UsersDrive.com
Download 2
Turbobit.net
Rapidgator.net
UploadEver.com
KatFile.com
UsersDrive.com
Download 3
Turbobit.net
Rapidgator.net
UploadEver.com
KatFile.com
UsersDrive.com

Tracklist:

1 - Hartgeld - 4:42
2 - Deine Liebe Klebt - 4:21
3 - Video - 4:17
4 - Ich Will Mehr - 4:18
5 - Haarscharf - 4:52
6 - Luxus - 4:39
7 - Marie - 4:27
8 - Freunde - 4:08
9 - Sie - 3:52

EAC-Log, CUE-Sheed & NFO:

Click to open spoiler
Exact Audio Copy V0.99 prebeta 5 from 4. May 2009

EAC extraction logfile from 5. October 2011, 15:05

Herbert Grönemeyer / Luxus

Used drive : PIONEER DVD RW DVR-109 Adapter: 0
ID: 0

Read mode : Secure
Utilize accurate stream : Yes
Defeat audio cache : Yes
Make use of C2 pointers : No

Read offset correction : 48
Overread into Lead-In and Lead-Out : No
Fill up missing offset samples with silence : Yes
Delete leading and trailing silent blocks : No
Null samples used in CRC calculations : Yes
Used interface : Installed external ASPI
interface

Used output format : Internal WAV Routines
Sample format : 44.100 Hz; 16 Bit; Stereo

TOC of the extracted CD

Track | Start | Length | Start sector | End sector
———————————————————
1 | 0:00.00 | 4:46.40 | 0 | 21489
2 | 4:46.40 | 4:21.65 | 21490 | 41129
3 | 9:08.30 | 4:13.60 | 41130 | 60164
4 | 13:22.15 | 4:15.20 | 60165 | 79309
5 | 17:37.35 | 5:08.57 | 79310 | 102466
6 | 22:46.17 | 4:40.10 | 102467 | 123476
7 | 27:26.27 | 4:27.53 | 123477 | 143554
8 | 31:54.05 | 4:07.45 | 143555 | 162124
9 | 36:01.50 | 3:52.55 | 162125 | 179579

Range status and errors

Selected range

Filename G:\Audio\Groenemeyer\Herbert
Grönemeyer – Luxus.wav

Peak level 93.7 %
Range quality 100.0 %
Test CRC CA3EE8EB
Copy CRC CA3EE8EB
Copy OK

No errors occurred

AccurateRip summary

Track 1 accurately ripped (confidence 19) [6D15297D]
Track 2 accurately ripped (confidence 20) [0A6A24CC]
Track 3 accurately ripped (confidence 20) [F91A6076]
Track 4 accurately ripped (confidence 20) [21C83ADC]
Track 5 accurately ripped (confidence 20) [4E972817]
Track 6 accurately ripped (confidence 20) [F7DCADB7]
Track 7 accurately ripped (confidence 20) [612E30E9]
Track 8 accurately ripped (confidence 19) [D1E2768B]
Track 9 accurately ripped (confidence 19) [6EC557C4]

All tracks accurately ripped

End of status report

REM GENRE Rock
REM DATE 1990
REM DISCID 7B095A09
REM COMMENT “ExactAudioCopy v0.99pb5”
PERFORMER “Herbert Grönemeyer”
TITLE “Luxus”
FILE “Herbert Grönemeyer – Luxus.flac” FLAC
TRACK 01 AUDIO
TITLE “Hartgeld”
PERFORMER “Herbert Grönemeyer”
INDEX 01 00:00:00
TRACK 02 AUDIO
TITLE “Deine Liebe klebt”
PERFORMER “Herbert Grönemeyer”
INDEX 00 04:46:10
INDEX 01 04:46:40
TRACK 03 AUDIO
TITLE “Video”
PERFORMER “Herbert Grönemeyer”
INDEX 00 09:08:27
INDEX 01 09:08:30
TRACK 04 AUDIO
TITLE “Ich will mehr”
PERFORMER “Herbert Grönemeyer”
INDEX 00 13:22:12
INDEX 01 13:22:15
TRACK 05 AUDIO
TITLE “Haarscharf”
PERFORMER “Herbert Grönemeyer”
INDEX 00 17:36:50
INDEX 01 17:37:35
TRACK 06 AUDIO
TITLE “Luxus”
PERFORMER “Herbert Grönemeyer”
INDEX 00 22:45:20
INDEX 01 22:46:17
TRACK 07 AUDIO
TITLE “Marie”
PERFORMER “Herbert Grönemeyer”
INDEX 00 27:25:55
INDEX 01 27:26:27
TRACK 08 AUDIO
TITLE “Freunde”
PERFORMER “Herbert Grönemeyer”
INDEX 00 31:52:67
INDEX 01 31:54:05
TRACK 09 AUDIO
TITLE “Sie”
PERFORMER “Herbert Grönemeyer”
INDEX 00 36:00:20
INDEX 01 36:01:50


Leave a Reply

Your email address will not be published. Required fields are marked *

This site uses Akismet to reduce spam. Learn how your comment data is processed.