Herbert Grönemeyer – Cosmic Chaos




Artist: Herbert Grönemeyer
Year: 1984
Genre: Alternative
Notes: Discogs
Add. Notes:
Cover incl.: Yes
Encoder: FLAC
Bitrate: ~1000 kBit/s (44.1 kHz/16 Bit/s)
Log & Cue incl.: Yes
Size: 309,65 MB
Password: “slam” (without ” “)


All Downloads/Hosters are compatible

Download 1
Turbobit.net
Rapidgator.net
UploadEver.com
KatFile.com
UsersDrive.com
Download 2
Turbobit.net
Rapidgator.net
UploadEver.com
KatFile.com
UsersDrive.com
Download 3
Turbobit.net
Rapidgator.net
UploadEver.com
KatFile.com
UsersDrive.com

Tracklist:

1 - Morgenrot (Trance Mix Radio Edit) - 3:59
2 - Morgenrot (Trance Mix) - 6:38
3 - Morgenrot (Hard Mix) - 5:04
4 - Dance Chaos (Stoned Mix) - 6:41
5 - Land Unter (Herb-Hop Long Mix With Rap) - 6:32
6 - Land Unter (Underground House Mix) - 5:43
7 - Die Härte (Techno Mix) - 4:52
8 - Morgenrot (Techno Mix + Bonus Mix) - 5:37

EAC-Log, CUE-Sheed & NFO:

Click to open spoiler
Exact Audio Copy V0.99 prebeta 5 from 4. May 2009

EAC extraction logfile from 30. October 2011, 10:24

HERBERT GRÖNEMEYER / COSMIC CHAOS

Used drive : PIONEER DVD RW DVR-109 Adapter: 0 ID: 0

Read mode : Secure
Utilize accurate stream : Yes
Defeat audio cache : Yes
Make use of C2 pointers : No

Read offset correction : 48
Overread into Lead-In and Lead-Out : No
Fill up missing offset samples with silence : Yes
Delete leading and trailing silent blocks : No
Null samples used in CRC calculations : Yes
Used interface : Installed external ASPI interface

Used output format : Internal WAV Routines
Sample format : 44.100 Hz; 16 Bit; Stereo

TOC of the extracted CD

Track | Start | Length | Start sector | End sector
———————————————————
1 | 0:00.00 | 4:01.15 | 0 | 18089
2 | 4:01.15 | 6:40.67 | 18090 | 48156
3 | 10:42.07 | 5:06.20 | 48157 | 71126
4 | 15:48.27 | 6:42.60 | 71127 | 101336
5 | 22:31.12 | 6:33.60 | 101337 | 130871
6 | 29:04.72 | 5:40.38 | 130872 | 156409
7 | 34:45.35 | 4:53.70 | 156410 | 178454
8 | 39:39.30 | 5:38.35 | 178455 | 203839

Range status and errors

Selected range

Filename G:\Audio\Groenemeyer\HERBERT GRÖNEMEYER – COSMIC CHAOS.wav

Peak level 98.8 %
Range quality 100.0 %
Test CRC 59B1B5B1
Copy CRC 59B1B5B1
Copy OK

No errors occurred

AccurateRip summary

Track 1 accurately ripped (confidence 30) [7274296D]
Track 2 accurately ripped (confidence 30) [BCA7916D]
Track 3 accurately ripped (confidence 30) [57C19593]
Track 4 accurately ripped (confidence 29) [B3E316CE]
Track 5 accurately ripped (confidence 30) [D4C4BA47]
Track 6 accurately ripped (confidence 30) [1BEC4BA4]
Track 7 accurately ripped (confidence 29) [34C95988]
Track 8 accurately ripped (confidence 27) [2302E26C]

All tracks accurately ripped

End of status report

REM GENRE Trance
REM DATE 1994
REM DISCID 640A9D08
REM COMMENT “ExactAudioCopy v0.99pb5”
PERFORMER “HERBERT GRÖNEMEYER”
TITLE “COSMIC CHAOS”
FILE “HERBERT GRÖNEMEYER – COSMIC CHAOS.flac” FLAC
TRACK 01 AUDIO
TITLE “Morgenrot (Trance Mix Radio Edit) (132 BPM)”
PERFORMER “HERBERT GRÖNEMEYER”
INDEX 01 00:00:00
TRACK 02 AUDIO
TITLE “Morgenrot (Trance Mix) (132 BPM)”
PERFORMER “HERBERT GRÖNEMEYER”
INDEX 00 03:59:30
INDEX 01 04:01:15
TRACK 03 AUDIO
TITLE “Morgenrot (Hard Mix) (141 BPM)”
PERFORMER “HERBERT GRÖNEMEYER”
INDEX 00 10:40:41
INDEX 01 10:42:07
TRACK 04 AUDIO
TITLE “Dance Chaos (Stoned Mix) (132 BPM)”
PERFORMER “HERBERT GRÖNEMEYER”
INDEX 00 15:46:56
INDEX 01 15:48:27
TRACK 05 AUDIO
TITLE “Land Unter (Herb-Hop Long Mix With Rap) (96 BPM)”
PERFORMER “HERBERT GRÖNEMEYER”
INDEX 00 22:29:35
INDEX 01 22:31:12
TRACK 06 AUDIO
TITLE “Land Unter (Underground House Mix) (120 BPM)”
PERFORMER “HERBERT GRÖNEMEYER”
INDEX 00 29:03:22
INDEX 01 29:04:72
TRACK 07 AUDIO
TITLE “Die Härte (Techno Mix) (140 BPM) ”
PERFORMER “HERBERT GRÖNEMEYER”
INDEX 00 34:43:55
INDEX 01 34:45:35
TRACK 08 AUDIO
TITLE “Morgenrot + (Techno Mix + Bonus Mix) (141 BPM)”
PERFORMER “HERBERT GRÖNEMEYER”
INDEX 00 39:37:50
INDEX 01 39:39:30


Leave a Reply

Your email address will not be published. Required fields are marked *

This site uses Akismet to reduce spam. Learn how your comment data is processed.