Herbert Grönemeyer – Chaos




Artist: Herbert Grönemeyer
Year: 1993
Genre: Rock
Notes: Discogs
Add. Notes:
Cover incl.: Yes
Encoder: FLAC
Bitrate: ~900 kBit/s (44.1 kHz/16 Bit/s)
Log & Cue incl.: Yes
Size: 325,16 MB
Password: “slam” (without ” “)


All Downloads/Hosters are compatible

Download 1
Turbobit.net
Rapidgator.net
KatFile.com
UploadRar.com
Download 2
Turbobit.net
Rapidgator.net
KatFile.com
UploadRar.com

Tracklist:

1 - Chaos - 4:47
2 - Die Härte - 3:39
3 - Land Unter - 5:02
4 - Fisch Im Netz - 4:23
5 - Keine Garantie - 5:23
6 - Grönland - 6:53
7 - Ich Geb' Nichts Mehr - 4:25
8 - Morgenrot - 3:49
9 - Kein Verlust - 3:56
10 - Die Welle - 4:52

EAC-Log, CUE-Sheed & NFO:

Click to open spoiler
Exact Audio Copy V0.99 prebeta 5 from 4. May 2009

EAC extraction logfile from 12. October 2011, 15:27

Herbert Grönemeyer / Chaos

Used drive : PIONEER DVD RW DVR-109 Adapter: 0 ID: 0

Read mode : Secure
Utilize accurate stream : Yes
Defeat audio cache : Yes
Make use of C2 pointers : No

Read offset correction : 48
Overread into Lead-In and Lead-Out : No
Fill up missing offset samples with silence : Yes
Delete leading and trailing silent blocks : No
Null samples used in CRC calculations : Yes
Used interface : Installed external ASPI interface

Used output format : Internal WAV Routines
Sample format : 44.100 Hz; 16 Bit; Stereo

TOC of the extracted CD

Track | Start | Length | Start sector | End sector
———————————————————
1 | 0:00.00 | 4:52.00 | 0 | 21899
2 | 4:52.00 | 3:43.32 | 21900 | 38656
3 | 8:35.32 | 5:02.70 | 38657 | 61376
4 | 13:38.27 | 4:25.48 | 61377 | 81299
5 | 18:04.00 | 5:21.35 | 81300 | 105409
6 | 23:25.35 | 6:51.72 | 105410 | 136306
7 | 30:17.32 | 4:28.18 | 136307 | 156424
8 | 34:45.50 | 3:49.42 | 156425 | 173641
9 | 38:35.17 | 3:56.55 | 173642 | 191396
10 | 42:31.72 | 4:54.73 | 191397 | 213519

Range status and errors

Selected range

Filename G:\Audio\Groenemeyer\Herbert Grönemeyer – Chaos.wav

Peak level 97.7 %
Range quality 100.0 %
Test CRC 7D5B1CF7
Copy CRC 7D5B1CF7
Copy OK

No errors occurred

AccurateRip summary

Track 1 accurately ripped (confidence 181) [161B0757]
Track 2 accurately ripped (confidence 181) [B4C2E37F]
Track 3 accurately ripped (confidence 179) [286BC088]
Track 4 accurately ripped (confidence 182) [EBF89A71]
Track 5 accurately ripped (confidence 182) [BD8F957B]
Track 6 accurately ripped (confidence 181) [0CF983E4]
Track 7 accurately ripped (confidence 178) [AFB3CAC0]
Track 8 accurately ripped (confidence 180) [724C2BBA]
Track 9 accurately ripped (confidence 178) [68884864]
Track 10 accurately ripped (confidence 174) [49EAAF23]

All tracks accurately ripped

End of status report

REM GENRE Rock
REM DATE 1993
REM DISCID 830B1E0A
REM COMMENT “ExactAudioCopy v0.99pb5”
PERFORMER “Herbert Grönemeyer”
TITLE “Chaos”
FILE “Herbert Grönemeyer – Chaos.flac” FLAC
TRACK 01 AUDIO
TITLE “Chaos”
PERFORMER “Herbert Grönemeyer”
INDEX 01 00:00:00
TRACK 02 AUDIO
TITLE “Die Härte”
PERFORMER “Herbert Grönemeyer”
INDEX 00 04:51:42
INDEX 01 04:52:00
TRACK 03 AUDIO
TITLE “Land unter”
PERFORMER “Herbert Grönemeyer”
INDEX 00 08:33:40
INDEX 01 08:35:32
TRACK 04 AUDIO
TITLE “Fisch im Netz”
PERFORMER “Herbert Grönemeyer”
INDEX 00 13:36:42
INDEX 01 13:38:27
TRACK 05 AUDIO
TITLE “Keine Garantie”
PERFORMER “Herbert Grönemeyer”
INDEX 00 18:01:60
INDEX 01 18:04:00
TRACK 06 AUDIO
TITLE “Grönland”
PERFORMER “Herbert Grönemeyer”
INDEX 00 23:24:40
INDEX 01 23:25:35
TRACK 07 AUDIO
TITLE “Ich geb’ nichts mehr”
PERFORMER “Herbert Grönemeyer”
INDEX 00 30:17:02
INDEX 01 30:17:32
TRACK 08 AUDIO
TITLE “Morgenrot”
PERFORMER “Herbert Grönemeyer”
INDEX 00 34:43:05
INDEX 01 34:45:50
TRACK 09 AUDIO
TITLE “Kein Verlust”
PERFORMER “Herbert Grönemeyer”
INDEX 00 38:33:30
INDEX 01 38:35:17
TRACK 10 AUDIO
TITLE “Die Welle”
PERFORMER “Herbert Grönemeyer”
INDEX 00 42:30:55
INDEX 01 42:31:72


Leave a Reply

Your email address will not be published. Required fields are marked *

This site uses Akismet to reduce spam. Learn how your comment data is processed.