Herbert Grönemeyer – Bleibt alles Anders




Artist: Herbert Grönemeyer
Year: 1998
Genre: Rock
Notes: Discogs
Add. Notes:
Cover incl.: Yes
Encoder: FLAC
Bitrate: ~900 kBit/s (44.1 kHz/16 Bit/s)
Log & Cue incl.: Yes
Size: 329,25 MB
Password: “slam” (without ” “)


All Downloads/Hosters are compatible

Download 1
Turbobit.net
Rapidgator.net
KatFile.com
UploadRar.com
Download 2
Turbobit.net
Rapidgator.net
KatFile.com
UploadRar.com
Download 3
Turbobit.net
Rapidgator.net
KatFile.com
UploadRar.com

Tracklist:

1 - Nach Mir - 3:59
2 - Bleibt Alles Anders - 4:42
3 - Fanatisch - 4:06
4 - Letzte Version - 4:49
5 - Ich Dreh Mich Um Dich - 4:43
6 - Energie - 4:06
7 - Neue Welt - 5:14
8 - Selbstmitleid - 2:43
9 - Stand Der Dinge - 4:23
10 - Reines Herz - 4:37
11 - Schmetterlinge Im Eis - 6:31

EAC-Log, CUE-Sheed & NFO:

Click to open spoiler
Exact Audio Copy V0.99 prebeta 5 from 4. May 2009

EAC extraction logfile from 14. October 2011, 18:28

Herbert Grönemeyer / Bleibt alles Anders

Used drive : PIONEER DVD RW DVR-109 Adapter: 0 ID: 0

Read mode : Secure
Utilize accurate stream : Yes
Defeat audio cache : Yes
Make use of C2 pointers : No

Read offset correction : 48
Overread into Lead-In and Lead-Out : No
Fill up missing offset samples with silence : Yes
Delete leading and trailing silent blocks : No
Null samples used in CRC calculations : Yes
Used interface : Installed external ASPI interface

Used output format : Internal WAV Routines
Sample format : 44.100 Hz; 16 Bit; Stereo

TOC of the extracted CD

Track | Start | Length | Start sector | End sector
———————————————————
1 | 0:00.00 | 4:00.70 | 0 | 18069
2 | 4:00.70 | 4:43.07 | 18070 | 39301
3 | 8:44.02 | 4:07.10 | 39302 | 57836
4 | 12:51.12 | 4:55.18 | 57837 | 79979
5 | 17:46.30 | 4:42.50 | 79980 | 101179
6 | 22:29.05 | 4:01.37 | 101180 | 119291
7 | 26:30.42 | 5:18.45 | 119292 | 143186
8 | 31:49.12 | 2:43.10 | 143187 | 155421
9 | 34:32.22 | 4:25.10 | 155422 | 175306
10 | 38:57.32 | 4:40.48 | 175307 | 196354
11 | 43:38.05 | 6:33.35 | 196355 | 225864

Range status and errors

Selected range

Filename G:\Audio\Groenemeyer\Herbert Grönemeyer – Bleibt alles Anders.wav

Peak level 100.0 %
Range quality 100.0 %
Test CRC 7E93AF84
Copy CRC 7E93AF84
Copy OK

No errors occurred

AccurateRip summary

Track 1 accurately ripped (confidence 200) [F4790F50]
Track 2 accurately ripped (confidence 200) [E4405F4A]
Track 3 accurately ripped (confidence 200) [EA0E924F]
Track 4 accurately ripped (confidence 200) [1F923F17]
Track 5 accurately ripped (confidence 200) [B1CFBB5E]
Track 6 accurately ripped (confidence 200) [4DF161D4]
Track 7 accurately ripped (confidence 200) [6CD2296C]
Track 8 accurately ripped (confidence 200) [0745112D]
Track 9 accurately ripped (confidence 200) [1FD37E37]
Track 10 accurately ripped (confidence 200) [033406D6]
Track 11 accurately ripped (confidence 200) [5AFB170E]

All tracks accurately ripped

End of status report

REM GENRE Pop
REM DATE 1998
REM DISCID 860BC30B
REM COMMENT “ExactAudioCopy v0.99pb5”
PERFORMER “Herbert Grönemeyer”
TITLE “Bleibt alles Anders”
FILE “Herbert Grönemeyer – Bleibt alles Anders.flac” FLAC
TRACK 01 AUDIO
TITLE “Nach mir”
PERFORMER “Herbert Grönemeyer”
INDEX 01 00:00:00
TRACK 02 AUDIO
TITLE “Bleibt alles Anders”
PERFORMER “Herbert Grönemeyer”
INDEX 00 04:00:25
INDEX 01 04:00:70
TRACK 03 AUDIO
TITLE “Fanatisch”
PERFORMER “Herbert Grönemeyer”
INDEX 00 08:43:47
INDEX 01 08:44:02
TRACK 04 AUDIO
TITLE “Letzte Version”
PERFORMER “Herbert Grönemeyer”
INDEX 00 12:50:20
INDEX 01 12:51:12
TRACK 05 AUDIO
TITLE “Ich dreh mich um dich”
PERFORMER “Herbert Grönemeyer”
INDEX 00 17:44:40
INDEX 01 17:46:30
TRACK 06 AUDIO
TITLE “Energie”
PERFORMER “Herbert Grönemeyer”
INDEX 00 22:28:47
INDEX 01 22:29:05
TRACK 07 AUDIO
TITLE “Neue Welt”
PERFORMER “Herbert Grönemeyer”
INDEX 01 26:30:42
TRACK 08 AUDIO
TITLE “Selbstmitleid”
PERFORMER “Herbert Grönemeyer”
INDEX 00 31:44:35
INDEX 01 31:49:12
TRACK 09 AUDIO
TITLE “Stand der Dinge”
PERFORMER “Herbert Grönemeyer”
INDEX 01 34:32:22
TRACK 10 AUDIO
TITLE “Reines Herz”
PERFORMER “Herbert Grönemeyer”
INDEX 00 38:55:15
INDEX 01 38:57:32
TRACK 11 AUDIO
TITLE “Schmetterlinge im Eis”
PERFORMER “Herbert Grönemeyer”
INDEX 00 43:35:10
INDEX 01 43:38:05


Leave a Reply

Your email address will not be published. Required fields are marked *

This site uses Akismet to reduce spam. Learn how your comment data is processed.