Herbert Grönemeyer – 4630 Bochum




Artist: Herbert Grönemeyer
Year: 1984
Genre: Rock
Notes: Discogs
Add. Notes:
Cover incl.: Yes
Encoder: FLAC
Bitrate: ~1000 kBit/s (44.1 kHz/16 Bit/s)
Log & Cue incl.: Yes
Size: 537,88 MB
Password: “slam” (without ” “)


All Downloads/Hosters are compatible

Download 1
Turbobit.net
Rapidgator.net
KatFile.com
UploadRar.com
Download 2
Turbobit.net
Rapidgator.net
KatFile.com
UploadRar.com

Tracklist:

1 - Bochum - 3:46
2 - Männer - 3:58
3 - Flugzeuge Im Bauch - 3:51
4 - Alkohol - 4:27
5 - Amerika - 3:24
6 - Für Dich Da - 3:22
7 - Jetzt Oder Nie - 4:56
8 - Fangfragen - 4:15
9 - Erwischt - 3:59
10 - Mambo - 2:45

EAC-Log, CUE-Sheed & NFO:

Click to open spoiler
Exact Audio Copy V0.99 prebeta 5 from 4. May 2009

EAC extraction logfile from 15. October 2011, 10:43

Herbert Grönemeyer / 4630 Bochum

Used drive : PIONEER DVD RW DVR-109 Adapter: 0 ID: 0

Read mode : Secure
Utilize accurate stream : Yes
Defeat audio cache : Yes
Make use of C2 pointers : No

Read offset correction : 48
Overread into Lead-In and Lead-Out : No
Fill up missing offset samples with silence : Yes
Delete leading and trailing silent blocks : No
Null samples used in CRC calculations : Yes
Used interface : Installed external ASPI interface

Used output format : Internal WAV Routines
Sample format : 44.100 Hz; 16 Bit; Stereo

TOC of the extracted CD

Track | Start | Length | Start sector | End sector
———————————————————
1 | 0:00.00 | 3:50.07 | 0 | 17256
2 | 3:50.07 | 4:00.45 | 17257 | 35301
3 | 7:50.52 | 3:54.28 | 35302 | 52879
4 | 11:45.05 | 4:29.65 | 52880 | 73119
5 | 16:14.70 | 3:26.25 | 73120 | 88594
6 | 19:41.20 | 3:23.67 | 88595 | 103886
7 | 23:05.12 | 4:57.65 | 103887 | 126226
8 | 28:03.02 | 4:17.03 | 126227 | 145504
9 | 32:20.05 | 4:01.32 | 145505 | 163611
10 | 36:21.37 | 2:45.43 | 163612 | 176029

Range status and errors

Selected range

Filename G:\Audio\Herbert Grönemeyer – 4630 Bochum.wav

Peak level 99.8 %
Range quality 100.0 %
Test CRC 3E2273E4
Copy CRC 3E2273E4
Copy OK

No errors occurred

AccurateRip summary

Track 1 accurately ripped (confidence 100) [CD8E17BA]
Track 2 accurately ripped (confidence 101) [7C101A42]
Track 3 accurately ripped (confidence 101) [8533F3AE]
Track 4 accurately ripped (confidence 100) [86056373]
Track 5 accurately ripped (confidence 101) [497A02C9]
Track 6 accurately ripped (confidence 100) [AE790B52]
Track 7 accurately ripped (confidence 101) [C44E3A2B]
Track 8 accurately ripped (confidence 101) [EC26B689]
Track 9 accurately ripped (confidence 99) [01BCF3AE]
Track 10 accurately ripped (confidence 97) [BBB630B6]

All tracks accurately ripped

End of status report

REM GENRE “Deutsch Rock”
REM DATE 1984
REM DISCID 8C092B0A
REM COMMENT “ExactAudioCopy v0.99pb5”
PERFORMER “Herbert Grönemeyer”
TITLE “4630 Bochum”
FILE “Herbert Grönemeyer – 4630 Bochum.flac” FLAC
TRACK 01 AUDIO
TITLE “Bochum”
PERFORMER “Herbert Grönemeyer”
INDEX 01 00:00:00
TRACK 02 AUDIO
TITLE “Männer”
PERFORMER “Herbert Grönemeyer”
INDEX 00 03:47:57
INDEX 01 03:50:07
TRACK 03 AUDIO
TITLE “Flugzeuge im Bauch”
PERFORMER “Herbert Grönemeyer”
INDEX 00 07:48:17
INDEX 01 07:50:52
TRACK 04 AUDIO
TITLE “Alkohol”
PERFORMER “Herbert Grönemeyer”
INDEX 00 11:43:00
INDEX 01 11:45:05
TRACK 05 AUDIO
TITLE “Amerika”
PERFORMER “Herbert Grönemeyer”
INDEX 00 16:12:62
INDEX 01 16:14:70
TRACK 06 AUDIO
TITLE “Für Dich da”
PERFORMER “Herbert Grönemeyer”
INDEX 00 19:38:42
INDEX 01 19:41:20
TRACK 07 AUDIO
TITLE “Jetzt oder nie”
PERFORMER “Herbert Grönemeyer”
INDEX 00 23:02:50
INDEX 01 23:05:12
TRACK 08 AUDIO
TITLE “Fangfragen”
PERFORMER “Herbert Grönemeyer”
INDEX 00 28:00:57
INDEX 01 28:03:02
TRACK 09 AUDIO
TITLE “Erwischt”
PERFORMER “Herbert Grönemeyer”
INDEX 00 32:17:67
INDEX 01 32:20:05
TRACK 10 AUDIO
TITLE “Mambo”
PERFORMER “Herbert Grönemeyer”
INDEX 00 36:19:47
INDEX 01 36:21:37


Leave a Reply

Your email address will not be published. Required fields are marked *

This site uses Akismet to reduce spam. Learn how your comment data is processed.