Herbert Grönemeyer – 12




Artist: Herbert Grönemeyer
Year: 2007
Genre: Rock
Notes: Discogs
Add. Notes:
Cover incl.: No
Encoder: FLAC
Bitrate: ~900 kBit/s (44.1 kHz/16 Bit/s)
Log & Cue incl.: Yes
Size: 312,37 MB
Password: “slam” (without ” “)


All Downloads/Hosters are compatible

Download 1
Turbobit.net
Rapidgator.net
KatFile.com
UploadRar.com
Download 2
Turbobit.net
Rapidgator.net
KatFile.com
UploadRar.com

Tracklist:

1 - Stück Vom Himmel - 4:06
2 - Kopf Hoch, Tanzen - 3:54
3 - Du Bist Die - 3:45
4 - Marlene - 3:38
5 - Flüsternde Zeit - 3:41
6 - Leb In Meiner Welt - 4:22
7 - Ich Versteh - 3:28
8 - Ohne Dich - 4:10
9 - Spur - 3:47
10 - Zieh Deinen Weg - 4:04
11 - Zur Nacht - 3:01
12 - Liebe Liegt Nicht - 6:40

EAC-Log, CUE-Sheed & NFO:

Click to open spoiler
Exact Audio Copy V0.99 prebeta 5 from 4. May 2009

EAC extraction logfile from 4. October 2011, 14:57

Herbert Grönemeyer / Zwölf

Used drive : PIONEER DVD RW DVR-109 Adapter: 0 ID: 0

Read mode : Secure
Utilize accurate stream : Yes
Defeat audio cache : Yes
Make use of C2 pointers : No

Read offset correction : 48
Overread into Lead-In and Lead-Out : No
Fill up missing offset samples with silence : Yes
Delete leading and trailing silent blocks : No
Null samples used in CRC calculations : Yes
Used interface : Installed external ASPI interface

Used output format : Internal WAV Routines
Sample format : 44.100 Hz; 16 Bit; Stereo

TOC of the extracted CD

Track | Start | Length | Start sector | End sector
———————————————————
1 | 0:00.00 | 4:06.05 | 0 | 18454
2 | 4:06.05 | 3:55.30 | 18455 | 36109
3 | 8:01.35 | 3:44.55 | 36110 | 52964
4 | 11:46.15 | 3:38.37 | 52965 | 69351
5 | 15:24.52 | 3:41.73 | 69352 | 85999
6 | 19:06.50 | 4:23.37 | 86000 | 105761
7 | 23:30.12 | 3:29.39 | 105762 | 121475
8 | 26:59.51 | 4:10.09 | 121476 | 140234
9 | 31:09.60 | 3:48.26 | 140235 | 157360
10 | 34:58.11 | 4:05.06 | 157361 | 175741
11 | 39:03.17 | 3:03.60 | 175742 | 189526
12 | 42:07.02 | 6:39.70 | 189527 | 219521

Range status and errors

Selected range

Filename G:\Audio\Groenemeyer\Herbert Grönemeyer – Zwölf.wav

Peak level 99.8 %
Range quality 100.0 %
Test CRC 2CC14B0C
Copy CRC 2CC14B0C
Copy OK

No errors occurred

AccurateRip summary

Track 1 accurately ripped (confidence 200) [EA076FC7]
Track 2 accurately ripped (confidence 200) [89E27350]
Track 3 accurately ripped (confidence 200) [C9FF6C57]
Track 4 accurately ripped (confidence 200) [C16C9FE9]
Track 5 accurately ripped (confidence 200) [07A90BCB]
Track 6 accurately ripped (confidence 200) [8E51B0DA]
Track 7 accurately ripped (confidence 200) [E5BF3CF9]
Track 8 accurately ripped (confidence 200) [6C48CA7A]
Track 9 accurately ripped (confidence 200) [56AD7A5C]
Track 10 accurately ripped (confidence 200) [C5ADFE12]
Track 11 accurately ripped (confidence 200) [8E1496CC]
Track 12 accurately ripped (confidence 200) [3834A219]

All tracks accurately ripped

End of status report

REM GENRE “Deutsch Rock”
REM DATE 2007
REM DISCID 930B6E0C
REM COMMENT “ExactAudioCopy v0.99pb5”
PERFORMER “Herbert Grönemeyer”
TITLE “Zwölf”
FILE “Herbert Grönemeyer – Zwölf.flac” FLAC
TRACK 01 AUDIO
TITLE “Stück Vom Himmel”
PERFORMER “Herbert Grönemeyer”
FLAGS DCP
INDEX 01 00:00:00
TRACK 02 AUDIO
TITLE “Kopf Hoch, Tanzen”
PERFORMER “Herbert Grönemeyer”
FLAGS DCP
INDEX 01 04:06:05
TRACK 03 AUDIO
TITLE “Du Bist die”
PERFORMER “Herbert Grönemeyer”
FLAGS DCP
INDEX 00 08:00:17
INDEX 01 08:01:35
TRACK 04 AUDIO
TITLE “Marlene”
PERFORMER “Herbert Grönemeyer”
FLAGS DCP
INDEX 01 11:46:15
TRACK 05 AUDIO
TITLE “Flüsternde Zeit”
PERFORMER “Herbert Grönemeyer”
FLAGS DCP
INDEX 00 15:24:23
INDEX 01 15:24:52
TRACK 06 AUDIO
TITLE “Leb In Meiner Welt”
PERFORMER “Herbert Grönemeyer”
FLAGS DCP
INDEX 00 19:06:20
INDEX 01 19:06:50
TRACK 07 AUDIO
TITLE “Ich Versteh”
PERFORMER “Herbert Grönemeyer”
FLAGS DCP
INDEX 00 23:29:13
INDEX 01 23:30:12
TRACK 08 AUDIO
TITLE “Ohne Dich”
PERFORMER “Herbert Grönemeyer”
FLAGS DCP
INDEX 00 26:58:53
INDEX 01 26:59:51
TRACK 09 AUDIO
TITLE “Spur”
PERFORMER “Herbert Grönemeyer”
FLAGS DCP
INDEX 01 31:09:60
TRACK 10 AUDIO
TITLE “Zieh Deinen Weg”
PERFORMER “Herbert Grönemeyer”
FLAGS DCP
INDEX 00 34:56:64
INDEX 01 34:58:11
TRACK 11 AUDIO
TITLE “Zur Nacht”
PERFORMER “Herbert Grönemeyer”
FLAGS DCP
INDEX 00 39:02:22
INDEX 01 39:03:17
TRACK 12 AUDIO
TITLE “Liebe Liegt Nicht”
PERFORMER “Herbert Grönemeyer”
FLAGS DCP
INDEX 00 42:04:61
INDEX 01 42:07:02


Leave a Reply

Your email address will not be published. Required fields are marked *

This site uses Akismet to reduce spam. Learn how your comment data is processed.